<?xml version="1.0" standalone="no"?>
<!DOCTYPE svg PUBLIC "-//W3C//DTD SVG 1.1//EN" "http://www.w3.org/Graphics/SVG/1.1/DTD/svg11.dtd" >
<!--
2019-12-19: Created with FontForge (http://fontforge.org)
-->
<svg xmlns="http://www.w3.org/2000/svg" xmlns:xlink="http://www.w3.org/1999/xlink" version="1.1">
<metadata>
Created by FontForge 20170731 at Thu Dec 19 14:45:20 2019
 By root

</metadata>
<defs>
<font id="Flaticon" horiz-adv-x="512" >
  <font-face 
    font-family="Flaticon"
    font-weight="400"
    font-stretch="normal"
    units-per-em="512"
    panose-1="2 0 5 3 0 0 0 0 0 0"
    ascent="448"
    descent="-64"
    bbox="-32 -64.001 513.061 448.001"
    underline-thickness="25.6"
    underline-position="-51.2"
    unicode-range="U+0020-F13A"
  />
    <missing-glyph />
    <glyph glyph-name="space" unicode=" " horiz-adv-x="200" 
 />
    <glyph glyph-name="049-next" unicode="&#xf12f;" 
d="M371.578 332.422l140.422 -140.421l-140.422 -140.423l-22.8066 22.8076l101.487 101.486h-450.259v32.2549h450.259l-101.487 101.487z" />
    <glyph glyph-name="008-plus" unicode="&#xf107;" 
d="M512 207.835v-31.6699h-240.165v-240.165h-31.6699v240.165h-240.165v31.6699h240.165v240.165h31.6699v-240.165h240.165z" />
    <glyph glyph-name="016-building" unicode="&#xf10f;" 
d="M469.333 -46.9336h42.667v-17.0664h-512v17.0664h34.1338v486.4c0 4.71289 3.82031 8.5332 8.5332 8.5332h170.666c4.71289 0 8.5332 -3.82031 8.5332 -8.5332v-95.957l113.28 -32.3672c3.66406 -1.04785 6.18945 -4.39844 6.18652 -8.20898v-45.9268l63.5479 -31.7695
c2.89258 -1.44531 4.71973 -4.40332 4.71875 -7.6377v-264.533h42.667v44.1855c-16.3867 6.91016 -26.6436 23.3945 -25.5996 41.1484c0 23.5264 15.3086 42.666 34.1328 42.666c18.8252 0 34.1338 -19.1396 34.1338 -42.666
c1.04297 -17.7539 -9.21289 -34.2383 -25.6006 -41.1484v-44.1855zM204.8 -46.9336v477.867h-153.6v-34.1338h76.7998v-17.0664h-76.7998v-34.1338h76.7998v-17.0664h-76.7998v-34.1328h76.7998v-17.0674h-76.7998v-34.1328h76.7998v-17.0664h-76.7998v-34.1338h76.7998
v-17.0664h-76.7998v-34.1338h76.7998v-17.0664h-76.7998v-34.1338h76.7998v-17.0664h-76.7998v-34.1328h76.7998v-17.0674h-76.7998v-34.1328h76.7998v-17.0664h-76.7998v-17.0674h153.6zM324.267 -46.9336v343.433l-102.4 29.2529v-31.3516h59.7334v-17.0674h-59.7334
v-34.1328h59.7334v-17.0664h-59.7334v-34.1338h59.7334v-17.0664h-59.7334v-34.1338h59.7334v-17.0664h-59.7334v-34.1338h59.7334v-17.0664h-59.7334v-34.1328h59.7334v-17.0674h-59.7334v-34.1328h59.7334v-17.0664h-59.7334v-17.0674h102.4zM392.533 -46.9336v259.26
l-51.2002 25.6006v-45.9268h25.6006v-17.0664h-25.6006v-34.1338h25.6006v-17.0664h-25.6006v-34.1338h25.6006v-17.0664h-25.6006v-34.1328h25.6006v-17.0674h-25.6006v-34.1328h25.6006v-17.0664h-25.6006v-17.0674h51.2002zM452.267 16.4697v13.3965h17.0664v-13.3965
c5.72656 5.83398 8.80957 13.7607 8.5332 21.9307c0 13.875 -7.81641 25.5996 -17.0664 25.5996s-17.0664 -11.7246 -17.0664 -25.5996c-0.283203 -8.1709 2.80176 -16.0996 8.5332 -21.9307z" />
    <glyph glyph-name="017-modern-bridge-road-symbol" unicode="&#xf110;" 
d="M452.862 262.701l59.1377 -172.529h-38.4863l-40.2822 163.924c-0.452148 -0.217773 -0.910156 -0.423828 -1.3623 -0.641602c-34.6289 -16.7461 -66.25 -39.4219 -93.1123 -66.958c-10.7969 -11.0713 -20.7666 -22.8965 -29.9443 -35.3125l51.5479 -138.029h-38.958
l-32.0576 108.89c-6.8418 -11.3369 -13.1191 -23.0176 -18.8262 -34.9609c-17.2998 -36.2139 -29.5645 -74.9951 -36.9492 -114.423h-106.426c3.66699 8.94434 9.83398 23.1348 18.4834 40.1631l-27.8496 0.0244141l-21.0947 -40.1875h-96.6826l0.155273 0.326172
c7.92285 13.6299 16.8408 26.7041 26.0625 39.4814c11.2334 15.5703 23.1162 30.667 35.5381 45.3018c8.28516 9.76465 16.8418 19.2881 25.6084 28.6162l120.587 314.737l3.80664 9.93359l3.72461 -9.9707l64.1914 -171.886
c10.5732 4.9209 21.3086 9.49414 32.1904 13.6768l85.6533 160.243l4.39648 8.21973l3.01465 -8.79688l44.5273 -129.907c8.42969 0.462891 16.8799 0.713867 25.3438 0.724609c-0.125 0 -0.0605469 0.00390625 0.394531 0.00390625
c4.36816 -0.0302734 6.69629 -0.0498047 6.69629 -0.0498047c-9.7959 -3.27051 -19.4834 -6.75977 -29.0283 -10.6133zM133.987 131.83c4.54004 4.04395 9.11523 8.05078 13.7607 11.9795c31.0498 26.2578 64.5625 49.7061 100.206 69.3105
c4.17188 2.29004 8.37598 4.52441 12.6064 6.70508l-48.9199 166.175zM173.393 61.5664c10.5449 16.5527 21.7158 32.0723 33.2012 46.127l-24.1064 0.0898438c-12.0391 -14.7305 -35.377 -46.21 -35.377 -46.21zM246.428 149.631
c9.22266 8.22754 18.6709 15.6484 28.2461 22.248l-4.00391 14.4189l-48.9453 -36.8027zM311.806 198.82c0 0 25.5166 19.7939 45.9707 31.2256l-12.6865 1.17773l-45.6387 -27.042zM380.023 243.172c0 0 22.5713 13.0947 44.7979 20.5898l-2.58496 0.505859
c-27.3516 -7.7959 -51.2158 -19.5449 -51.2158 -19.5449zM361.848 259.038c22.1133 5.80469 44.5674 9.75781 67.2148 12.0205l-28.9033 117.614l-55.3682 -134.479c5.65527 1.7168 11.3398 3.34277 17.0566 4.84375z" />
    <glyph glyph-name="026-twitter" unicode="&#xf119;" 
d="M339.478 108.522c27.6182 0 50.0879 -22.4697 50.0879 -50.0879c0 -27.6172 -22.4697 -50.0869 -50.0879 -50.0869h-100.174c-64.4414 0 -116.87 52.4287 -116.87 116.87v200.349c0 27.6172 22.4697 50.0869 50.0879 50.0869
c27.6172 0 50.0869 -22.4697 50.0869 -50.0869v-50.0879h116.869c27.6182 0 50.0879 -22.4688 50.0879 -50.0869c0 -27.6172 -22.4697 -50.0869 -50.0879 -50.0869h-116.869v-50.0869c0 -9.20605 7.48926 -16.6953 16.6953 -16.6953h100.174zM339.478 41.7393
c9.20605 0 16.6963 7.48926 16.6963 16.6924c0 9.20605 -7.49023 16.6963 -16.6963 16.6963h-100.174c-27.6182 0 -50.0869 22.4688 -50.0869 50.0869v66.7832c0 9.2207 7.47656 16.6963 16.6963 16.6963h133.565c9.20605 0 16.6963 7.48926 16.6963 16.6953
s-7.49023 16.6963 -16.6963 16.6963h-133.564c-9.2207 0 -16.6963 7.47559 -16.6963 16.6963v66.7832c0 9.20605 -7.49023 16.6953 -16.6953 16.6953c-9.20605 0 -16.6963 -7.48926 -16.6963 -16.6953v-200.349c0 -46.0303 37.4482 -83.4775 83.4775 -83.4775h100.174z
M422.957 448c49.0977 0 89.043 -39.9453 89.043 -89.0439v-333.913c0 -49.0977 -39.9453 -89.043 -89.043 -89.043h-333.913c-49.0986 0 -89.0439 39.9453 -89.0439 89.043v333.913c0 49.0986 39.9453 89.0439 89.0439 89.0439h333.913zM478.609 25.043v333.913
c0 30.6855 -24.9658 55.6523 -55.6523 55.6523h-333.913c-30.6855 0 -55.6523 -24.9658 -55.6523 -55.6523v-333.913c0 -30.6855 24.9658 -55.6523 55.6523 -55.6523h333.913c30.6855 0 55.6523 24.9658 55.6523 55.6523z" />
    <glyph glyph-name="050-next-1" unicode="&#xf130;" 
d="M0 192c0 9.93457 7.94727 17.9873 17.8828 17.8828h433.045l-113.359 113.359c-7.00586 7.00586 -7.00586 18.4053 0 25.4111c7.00684 7.00684 18.4053 7.00684 25.4121 0l144 -143.896c6.69238 -6.79688 6.69238 -18.7188 0 -25.4111l-143.896 -144
c-7.00684 -7.00684 -18.4053 -7.00684 -25.4121 0c-3.4502 3.45117 -5.22852 8.05176 -5.22852 12.6533s1.77832 9.20215 5.22852 12.6533l113.465 113.359h-433.15c-9.93457 0 -17.9873 8.05273 -17.9873 17.9873z" />
    <glyph glyph-name="018-house" unicode="&#xf111;" 
d="M153.176 169.924c7.2041 0 13.0635 -5.8584 13.0625 -13.0605v-83.582c0 -7.20215 -5.85938 -13.0615 -13.0625 -13.0615h-47.7305c-7.20215 0 -13.0625 5.85938 -13.0625 13.0615v83.582c0 7.20117 5.86035 13.0605 13.0625 13.0605h47.7305zM150.563 75.8926v23.1924
h-42.5068v-23.1924h42.5068zM150.563 114.758v39.4932h-42.5068v-39.4932h42.5068zM411.779 140.277c-4.32812 0 -7.83691 3.50781 -7.83691 7.83691v6.13672h-42.5068v-39.4932h42.5068v5.14355c0 4.3291 3.50879 7.83691 7.83691 7.83691
c4.3291 0 7.83789 -3.50781 7.83789 -7.83691v-46.6201c0 -7.20215 -5.86035 -13.0615 -13.0625 -13.0615h-47.7305c-7.20215 0 -13.0615 5.85938 -13.0615 13.0615v83.582c0 7.20215 5.85938 13.0605 13.0615 13.0605h47.7305c7.20215 0 13.0625 -5.8584 13.0625 -13.0605
v-8.74902c0 -4.3291 -3.50879 -7.83691 -7.83789 -7.83691zM403.942 99.084h-42.5068v-23.1924h42.5068v23.1924zM288.838 85.1553c4.3291 0 7.83594 -3.50781 7.83691 -7.83691v-21.1924c0 -4.3291 -3.50879 -7.83789 -7.83691 -7.83789s-7.83691 3.50879 -7.83691 7.83789
v21.1924c0 4.3291 3.50781 7.83691 7.83691 7.83691zM506.676 262.749c5.7627 -4.18945 7.04785 -12.2871 2.86816 -18.0508l-17.9229 -24.7295c-2.02539 -2.79688 -5.01855 -4.63672 -8.42871 -5.17969c-0.662109 -0.106445 -1.34961 -0.161133 -2.03223 -0.161133
c-2.74609 0 -5.37109 0.853516 -7.5918 2.46484l-15.3291 11.1328v-266.142c0 -7.97168 -6.46191 -14.459 -14.4043 -14.459h-375.67c-7.94238 0 -14.4043 6.48633 -14.4043 14.459v266.14l-15.3271 -11.1318c-2.22266 -1.61328 -4.84766 -2.46582 -7.59375 -2.46582
c-0.683594 0 -1.37012 0.0537109 -2.04199 0.162109c-3.39941 0.543945 -6.39453 2.38281 -8.4209 5.18066l-17.9219 24.7275c-4.17871 5.76562 -2.89453 13.8633 2.86719 18.0508l229.641 166.789c6.15039 4.47168 13.4268 6.83789 21.0391 6.83789
c7.59863 0 14.8701 -2.36133 21.0244 -6.82715l68.6084 -49.8311c1.04199 6.41895 6.61133 11.3428 13.3213 11.3428h17.2119c4.32812 0 7.83691 -3.50879 7.83691 -7.83789c0 -4.32812 -3.50879 -7.83691 -7.83691 -7.83691h-15.0498v-6.91406l11.3369 -8.23438h84.6943
v15.1484h-51.7246c-4.32812 0 -7.83691 3.50879 -7.83691 7.83691c0 4.3291 3.50879 7.83789 7.83691 7.83789h53.8857c7.45117 0 13.5127 -6.06152 13.5127 -13.5117v-19.4736c0 -7.45117 -6.0625 -13.5127 -13.5127 -13.5127h-1.38672v-46.4033zM442.251 344.561h-48.2168
l48.2168 -35.0195v35.0195zM480.547 231.395l14.7002 20.2822l-227.43 165.187c-3.45898 2.50879 -7.54492 3.83691 -11.8174 3.83691c-4.27832 0 -8.36719 -1.33008 -11.8252 -3.84277l-227.421 -165.182l14.7002 -20.2812l73.6523 53.4951
c3.50195 2.54395 8.40137 1.7666 10.9453 -1.73438c2.54297 -3.50293 1.76758 -8.4043 -1.73535 -10.9473l-44.8828 -32.5986v-276.308h120.935v192.957c0 7.29785 5.93457 13.2354 13.2285 13.2354h104.807c7.29492 0 13.2285 -5.9375 13.2285 -13.2354v-127.267
c0 -4.3291 -3.50879 -7.83691 -7.83691 -7.83691s-7.83691 3.50781 -7.83691 7.83691v124.828h-99.916v-190.521h99.916v34.3428c0 4.3291 3.50879 7.83789 7.83691 7.83789s7.83691 -3.50879 7.83691 -7.83789v-34.3428h120.934v276.31l-186.565 135.507l-117.652 -85.4512
c-3.50195 -2.54297 -8.40234 -1.76562 -10.9453 1.73535c-2.54297 3.50195 -1.76562 8.40234 1.73535 10.9463l122.256 88.7969c2.74609 1.99512 6.46484 1.99512 9.21191 0zM290.482 245.752c7.20215 0 13.0605 -5.8584 13.0605 -13.0605v-15.2441
c0 -7.20215 -5.85938 -13.0615 -13.0605 -13.0615h-68.9658c-7.2002 0 -13.0605 5.86035 -13.0605 13.0615v15.2441c0 7.20117 5.8584 13.0605 13.0605 13.0605h68.9658zM287.87 220.059v10.0205h-63.7412v-10.0205h63.7412zM290.482 295.541
c7.20215 0 13.0605 -5.85938 13.0605 -13.0625v-15.2422c0 -7.20312 -5.85938 -13.0625 -13.0605 -13.0625h-68.9658c-7.2002 0 -13.0605 5.8584 -13.0605 13.0625v15.2422c0 7.20312 5.8584 13.0625 13.0605 13.0625h68.9658zM287.87 269.848v10.0186h-63.7412v-10.0186
h63.7412z" />
    <glyph glyph-name="053-list" unicode="&#xf133;" 
d="M0 448h113.293v-113.293h-113.293v113.293zM0 448zM149.297 448h362.703v-113.293h-362.703v113.293zM149.297 448zM0 300.992h113.293v-113.293h-113.293v113.293zM0 300.992zM149.297 300.992h362.703v-113.293h-362.703v113.293zM149.297 300.992zM0 153.988h113.293
v-113.297h-113.293v113.297zM0 153.988zM149.297 153.988h362.703v-113.297h-362.703v113.297zM149.297 153.988z" />
    <glyph glyph-name="022-location-pin" unicode="&#xf115;" 
d="M256.365 448c88.4189 0 160.354 -71.9082 160.357 -160.298c0 -47.9082 -26.2246 -121.303 -77.9463 -218.138c-38.3193 -71.7451 -77.1621 -130.403 -77.5488 -130.987c-1.04004 -1.56348 -2.77246 -2.52441 -4.64844 -2.57617
c-0.0517578 -0.00195312 -0.104492 -0.00195312 -0.15625 -0.00195312c-1.81934 0 -3.53516 0.861328 -4.62402 2.32422c-0.392578 0.524414 -39.5146 53.2568 -78.0957 122.107c-52.0381 92.8701 -78.4248 169.334 -78.4248 227.271
c0 88.3877 71.9346 160.298 160.355 160.298h0.731445zM330.383 283.785c0 41.0156 -33.3682 74.3838 -74.3848 74.3838c-41.0146 0 -74.3838 -33.3682 -74.3838 -74.3838s33.3691 -74.3838 74.3838 -74.3838c41.0166 0 74.3848 33.3672 74.3848 74.3838z" />
    <glyph glyph-name="005-pin" unicode="&#xf104;" 
d="M256 448c99.252 0 180 -80.748 180 -180c0 -32.5391 -8.7793 -64.4277 -25.3887 -92.2197l-139.243 -232.488c-2.6875 -4.48828 -7.51953 -7.25098 -12.75 -7.29199h-0.119141c-5.18555 0 -10.0078 2.67969 -12.7451 7.09082l-142.885 230.257
c-17.5801 28.3926 -26.8691 61.1182 -26.8691 94.6523c0 99.252 80.748 180 180 180zM384.866 191.182c13.8232 23.1299 21.2334 49.6973 21.2334 76.8184c0 82.71 -67.3896 150.2 -150.1 150.2s-150.2 -67.4902 -150.2 -150.2
c0 -27.9502 7.93457 -55.2139 22.5674 -78.8457l129.905 -209.34zM256 358c49.626 0 90 -40.374 90 -90c0 -48.7666 -39.0967 -90 -90 -90c-50.2832 0 -90 40.6914 -90 90c0 49.626 40.374 90 90 90zM256 207.8c33.7842 0 60.0996 27.5176 60.0996 60.2002
c0 33.084 -27.0156 60.2002 -60.0996 60.2002s-60.2002 -27.1162 -60.2002 -60.2002c0 -33.167 26.9434 -60.2002 60.2002 -60.2002z" />
    <glyph glyph-name="019-chair" unicode="&#xf112;" 
d="M388.129 225.032h-8.25781v-13.915c19.4971 -9.29883 33.0322 -29.1504 33.0322 -52.1494v-33.0322c0 -13.6592 -11.1152 -24.7744 -24.7744 -24.7744h-8.66211l-8.25879 -165.161h-48.7393l-8.25781 165.161h-116.422l-8.25781 -165.161h-48.7393l-8.25879 165.161
h-8.66211c-13.6592 0 -24.7744 11.1152 -24.7744 24.7744v33.0322c0 22.999 13.5352 42.8506 33.0322 52.1494v13.915h-8.25781c-13.6592 0 -24.7744 11.1152 -24.7744 24.7744v107.354c0 20.125 14.4932 36.8809 33.5693 40.5146
c3.69141 28.3408 27.9365 50.3242 57.2695 50.3242h132.129c29.333 0 53.5781 -21.9834 57.2695 -50.3242c19.0762 -3.63379 33.5693 -20.3896 33.5693 -40.5146v-107.354c0 -13.6592 -11.1152 -24.7744 -24.7744 -24.7744zM379.871 380.416v-138.867h8.25781
c4.55078 0 8.25781 3.70703 8.25781 8.25781v107.354c0 10.752 -6.92773 19.8359 -16.5156 23.2549zM148.646 390.193v-174.08c2.70801 0.388672 5.4502 0.661133 8.25781 0.661133h198.193c2.80762 0 5.5498 -0.272461 8.25781 -0.661133v174.08
c0 22.7676 -18.5225 41.29 -41.29 41.29h-132.129c-22.7676 0 -41.29 -18.5225 -41.29 -41.29zM123.871 241.549h8.25781v138.867c-9.58789 -3.41895 -16.5156 -12.5029 -16.5156 -23.2549v-107.354c0 -4.55078 3.70703 -8.25781 8.25781 -8.25781zM173.824 -47.4834
l0.825195 16.5156h-18.9766l0.826172 -16.5156h17.3252zM175.476 -14.4512l5.78027 115.612h-32.1895l5.78027 -115.612h20.6289zM355.501 -47.4834l0.826172 16.5156h-18.9766l0.825195 -16.5156h17.3252zM357.153 -14.4512l5.78027 115.612h-32.1895l5.78027 -115.612
h20.6289zM395.553 167.226c-3.83984 18.8203 -20.5205 33.0322 -40.4561 33.0322h-198.193c-19.9434 0 -36.6162 -14.2119 -40.4561 -33.0322h246.907v-16.5156h-247.741v-24.7744c0 -4.5498 3.70703 -8.25781 8.25781 -8.25781h264.258
c4.55078 0 8.25781 3.70801 8.25781 8.25781v24.7744h-16.5156v16.5156h15.6816z" />
    <glyph glyph-name="060-comment" unicode="&#xf13a;" 
d="M471.313 80.1797c5.04297 -55.7832 18.5596 -97.1865 38.1865 -116.813c2.59375 -2.58496 3.24219 -6.55371 1.60352 -9.83887c-1.4502 -2.92676 -4.43652 -4.72754 -7.63672 -4.72754c-0.392578 0 -0.785156 0.0253906 -1.18652 0.0859375
c-3.45605 0.486328 -83.7373 12.04 -141.807 45.5508c-32.9814 -13.2949 -68.1045 -20.0361 -104.474 -20.0361c-141.158 0 -256 103.355 -256 230.399c0 127.045 114.842 230.4 256 230.4s256 -103.355 256 -230.4c0 -44.416 -14.0459 -87.4326 -40.6865 -124.62z
M365.56 11.2471c38.1523 -23.04 89.4033 -35.8662 117.837 -41.6514c-18.7822 31.3174 -26.3682 76.6807 -29.3545 112.308c-0.179688 2.05566 0.400391 4.1123 1.62988 5.77637c25.6846 34.8252 39.2617 75.333 39.2617 117.12
c0 117.632 -107.188 213.334 -238.934 213.334s-238.934 -95.7021 -238.934 -213.334s107.188 -213.333 238.934 -213.333c29.7559 0 58.5811 4.85547 85.9814 14.3359c-34.7725 21.7256 -34.8496 23.2705 -34.8242 28.2969
c0.0175781 2.96875 1.62988 5.81055 4.19043 7.34668c3.88184 2.33008 8.88281 1.2207 11.417 -2.47461c4.67676 -3.71191 24.7812 -16.6055 42.7861 -27.7246h0.00878906zM136.533 238.934c18.8242 0 34.1338 -15.3086 34.1338 -34.1338
c0 -18.8242 -15.3096 -34.1328 -34.1338 -34.1328s-34.1328 15.3086 -34.1328 34.1328c0 18.8252 15.3086 34.1338 34.1328 34.1338zM136.533 187.733c9.41211 0 17.0664 7.6543 17.0664 17.0664s-7.6543 17.0664 -17.0664 17.0664s-17.0664 -7.6543 -17.0664 -17.0664
s7.6543 -17.0664 17.0664 -17.0664zM256 238.934c18.8242 0 34.1338 -15.3086 34.1338 -34.1338c0 -18.8242 -15.3096 -34.1328 -34.1338 -34.1328s-34.1338 15.3086 -34.1338 34.1328c0 18.8252 15.3096 34.1338 34.1338 34.1338zM256 187.733
c9.41211 0 17.0664 7.6543 17.0664 17.0664s-7.6543 17.0664 -17.0664 17.0664s-17.0664 -7.6543 -17.0664 -17.0664s7.6543 -17.0664 17.0664 -17.0664zM375.467 238.934c18.8242 0 34.1328 -15.3086 34.1328 -34.1338c0 -18.8242 -15.3086 -34.1328 -34.1328 -34.1328
s-34.1338 15.3086 -34.1338 34.1328c0 18.8252 15.3096 34.1338 34.1338 34.1338zM375.467 187.733c9.41211 0 17.0664 7.6543 17.0664 17.0664s-7.6543 17.0664 -17.0664 17.0664s-17.0664 -7.6543 -17.0664 -17.0664s7.6543 -17.0664 17.0664 -17.0664z" />
    <glyph glyph-name="002-multiply" unicode="&#xf101;" 
d="M0 448h512v-512h-512v512zM494.934 -46.9336v477.867h-477.867v-477.867h477.867zM136.61 60.5439l-12.0664 12.0664l120.679 120.678l-120.679 120.679l12.0664 12.0664l120.678 -120.679l120.679 120.679l12.0664 -12.0664l-120.679 -120.679l120.679 -120.678
l-12.0664 -12.0664l-120.679 120.679z" />
    <glyph glyph-name="024-engineer" unicode="&#xf117;" 
d="M486.647 23.041c15.6416 -8.22754 25.3525 -24.3291 25.3516 -42.0195v-36.4883c0 -4.71094 -3.81348 -8.5332 -8.5332 -8.5332h-207.991c-0.137695 0 -0.248047 0.0693359 -0.384766 0.0771484l-78.54 -0.0683594
c-0.00878906 0 -0.00878906 -0.0078125 -0.0175781 -0.0078125h-3.19141h-0.0078125h-204.8c-4.71094 0 -8.5332 3.82227 -8.5332 8.5332v36.4883c0 17.6895 9.71973 33.791 25.3623 42.0176c51.1914 26.9395 90.3506 41.8984 125.133 47.8037l-3.78906 5.20508
c-1.48535 2.04883 -1.99707 4.63379 -1.38281 7.08301l7.91895 31.6846c-21.2217 29.9346 -33.7744 67.3271 -33.7744 102.784v34.1328h-8.5332h-17.0664c-4.71094 0 -8.5332 3.82324 -8.5332 8.5332c0 4.71875 3.82227 8.5332 8.5332 8.5332h8.53223v8.53223
c0 23.7744 5.60645 46.166 15.6416 66.083l76.6123 -14.7285c0.536133 -0.103516 1.07422 -0.154297 1.6123 -0.154297c2.24316 0 4.41992 0.887695 6.03223 2.49219c1.99707 2.00586 2.88477 4.86523 2.35645 7.64648l-13.9951 73.4727
c7.22754 3.25098 14.7793 6.06641 22.6729 8.31055v1.80859c0 14.1924 11.5449 25.7373 25.7451 25.7373h33.8516c14.1914 0 25.7363 -11.5449 25.7363 -25.7363v-1.80859c7.90234 -2.24316 15.4541 -5.05957 22.6816 -8.31055l-13.9941 -73.4727
c-0.529297 -2.78223 0.358398 -5.6416 2.35547 -7.64648c1.61328 -1.60449 3.78906 -2.49219 6.02441 -2.49219c0.537109 0 1.0752 0.0507812 1.6123 0.154297l76.6211 14.7285c10.0361 -19.917 15.6338 -42.3086 15.6338 -66.083v-8.53223h8.53223
c4.71875 0 8.5332 -3.81348 8.5332 -8.5332c0 -4.70996 -3.81348 -8.5332 -8.5332 -8.5332h-17.0664h-8.5332v-34.1328c0 -35.457 -12.543 -72.8496 -33.7744 -102.784l7.92773 -31.6846c0.606445 -2.44922 0.102539 -5.03516 -1.38184 -7.08301l-3.78906 -5.20508
c34.7803 -5.90527 73.9404 -20.8643 125.132 -47.8037zM136.533 217.601c0 -38.4268 13.6016 -72.2441 33.7061 -97.6045c0.297852 -0.290039 0.682617 -0.469727 0.938477 -0.801758c2.93652 -3.75488 5.98242 -7.29688 9.10547 -10.624
c0.0166016 -0.0166016 0.0332031 -0.0341797 0.0507812 -0.0517578c2.07422 -2.19238 4.23242 -4.14746 6.375 -6.15234c20.8633 -18.8086 45.6357 -29.833 69.29 -29.833c23.6631 0 48.4355 11.0254 69.291 29.833c2.15039 2.00586 4.30859 3.95996 6.38281 6.15234
c0.0166016 0.0166016 0.0332031 0.0341797 0.0507812 0.0517578c3.12305 3.32812 6.16113 6.86914 9.09668 10.624c0.255859 0.332031 0.648438 0.511719 0.947266 0.801758c20.1045 25.3604 33.6982 59.1777 33.6982 97.6045v34.1328h-238.933v-34.1328zM162.85 82.8672
l57.2236 -78.6855l23.1602 52.0957c-0.0166016 0 -0.0341797 0.00878906 -0.0507812 0.00878906c-29.5762 3.59277 -55.8164 19.3965 -76.4414 41.8301c-0.0175781 0.0175781 -0.0429688 0.0351562 -0.0595703 0.0605469zM223.752 -46.9238l64.5039 0.0585938
l-2.94434 14.7207l-2.16699 10.8115h-54.2812zM291.934 4.18164l57.2236 78.6855l-3.83105 15.3096c-0.0175781 -0.0253906 -0.0429688 -0.0429688 -0.0605469 -0.0605469c-20.624 -22.4346 -46.8643 -38.2373 -76.4404 -41.8301
c-0.0166016 0 -0.0341797 -0.00878906 -0.0517578 -0.00878906zM337.144 403.861c19.3799 -11.5195 35.5928 -26.7861 47.7188 -44.7988l-58.3936 -11.2305zM174.862 403.861l10.6748 -56.0303l-58.3926 11.2305c12.125 18.0137 28.3379 33.2803 47.7178 44.7998z" />
    <glyph glyph-name="015-helmet-1" unicode="&#xf10e;" 
d="M487.283 135.17c14.166 -3.44727 24.7168 -16.2344 24.7168 -31.4463c0 -17.8467 -14.5195 -32.3672 -32.3682 -32.3672h-27.3926c-3.99414 -19.6885 -21.1162 -39.2188 -48.3506 -54.6836c-29.209 -16.585 -65.7588 -26.2412 -103.752 -27.542v-3.1084
c0 -4.87793 -3.95312 -8.82812 -8.82812 -8.82812h-70.6201c-4.87695 0 -8.82812 3.95215 -8.82812 8.82812v3.1084c-37.9922 1.2998 -74.542 10.9561 -103.752 27.542c-27.2334 15.4648 -44.3555 34.9951 -48.3506 54.6836h-27.3896
c-17.8486 0 -32.3682 14.5205 -32.3682 32.3672c0 15.2119 10.5508 27.999 24.7158 31.4463v16.8115c0 53.1836 18.4971 105.114 52.084 146.227c12.0332 14.7285 25.8076 27.8408 40.9004 39.1035v1.81445c0 4.87695 3.95312 8.82812 8.82812 8.82812
c1.69238 0 3.26953 -0.485352 4.6123 -1.31152c21.1533 13.585 44.4619 23.71 68.9512 29.8037v21.5303c0 4.87695 3.95312 8.82812 8.82812 8.82812h94.1602c4.87598 0 8.82812 -3.95215 8.82812 -8.82812v-21.5322c24.4893 -6.09277 47.7979 -16.2188 68.9492 -29.8027
c1.34375 0.827148 2.91992 1.3125 4.61328 1.3125c4.87598 0 8.82812 -3.95215 8.82812 -8.82812v-1.81445c15.0928 -11.2627 28.8662 -24.375 40.8994 -39.1025c33.5869 -41.1113 52.085 -93.0439 52.085 -146.228v-16.8115zM217.747 389.149v-167.725
c0 -5.85742 15.2559 -14.7129 38.2529 -14.7129s38.2529 8.85547 38.2529 14.7129v167.725h-76.5059zM42.3721 151.982h0.00390625v-15.8164c45.8066 0.672852 72.2246 5.9541 100.08 11.5254c29.3535 5.87012 59.707 11.9404 113.547 11.9404
s84.1924 -6.07031 113.547 -11.9414c27.8555 -5.57031 54.2734 -10.8525 100.08 -11.5254v15.8174c0 63.918 -28.9502 122.865 -75.3291 162.569v-116.667c0 -4.87695 -3.95215 -8.82812 -8.82812 -8.82812s-8.82812 3.95215 -8.82812 8.82812v130.259
c-19.4209 13.4043 -41.2197 23.6924 -64.7354 30.0625v-136.781c0 -18.4531 -24.0352 -32.3682 -55.9082 -32.3682s-55.9082 13.915 -55.9082 32.3682v136.782c-23.5166 -6.37012 -45.3145 -16.6572 -64.7354 -30.0625v-130.26
c0 -4.87695 -3.95215 -8.82812 -8.82812 -8.82812s-8.82812 3.95215 -8.82812 8.82812v116.668c-46.3789 -39.7041 -75.3291 -98.6523 -75.3291 -162.57zM211.862 6.80859v17.6475c-27.9805 1.02734 -55.3711 6.88477 -77.9629 16.7842
c-19.8457 8.69629 -33.0342 19.3242 -37.7764 30.1172h-18.1396c4.3584 -13.4287 18.1963 -27.6055 38.8447 -39.3301c26.2061 -14.8838 60.4189 -23.8945 95.0342 -25.2188zM211.862 44.874c0 4.87598 3.95215 8.82715 8.82812 8.82715h8.82715v17.6553h-111.555
c4.52441 -4.1123 11.8574 -9.05371 23.0234 -13.9463c20.1123 -8.81348 45.5215 -14.2441 70.876 -15.2832v2.74707zM282.483 -5.14941v41.1953h-52.9668v-41.1953h52.9668zM247.172 53.7012h17.6553v17.6553h-17.6553v-17.6553zM291.312 53.7012
c4.875 0 8.82715 -3.95117 8.82812 -8.82715v-2.74707c25.3535 1.03809 50.7637 6.46973 70.876 15.2832c11.165 4.89355 18.499 9.83496 23.0225 13.9463h-111.555v-17.6553h8.82812zM395.172 32.0264c20.6484 11.7256 34.4873 25.9023 38.8447 39.3301h-18.1396
c-4.74219 -10.793 -17.9297 -21.4209 -37.7764 -30.1172c-22.5928 -9.89844 -49.9834 -15.7559 -77.9629 -16.7842v-17.6465c34.6152 1.32422 68.8271 10.335 95.0342 25.2178zM479.632 89.0107c8.11328 0 14.7129 6.60059 14.7129 14.7129
c0 8.11426 -6.59961 14.7129 -14.7129 14.7129c-0.37207 0 -0.730469 0.00488281 -1.10059 0.00585938c-0.0253906 -0.000976562 -0.0498047 -0.00585938 -0.0761719 -0.00585938c-0.0292969 0 -0.0585938 0.00585938 -0.0878906 0.00585938
c-53.0439 0.0947266 -83.1621 6.1123 -112.282 11.9365c-29.8252 5.96387 -57.9941 11.5977 -110.085 11.5977s-80.2607 -5.63379 -110.086 -11.5977c-29.1201 -5.8252 -59.2383 -11.8418 -112.281 -11.9365c-0.0292969 0 -0.0585938 -0.00585938 -0.0878906 -0.00585938
c-0.0253906 0 -0.0507812 0.00488281 -0.0761719 0.00585938c-0.370117 -0.000976562 -0.728516 -0.00585938 -1.10059 -0.00585938c-8.11328 0 -14.7129 -6.59961 -14.7129 -14.7129c0 -8.1123 6.59961 -14.7129 14.7129 -14.7129h447.264z" />
    <glyph glyph-name="029-facebook-1" unicode="&#xf11c;" 
d="M185.238 -64h-130.004v180.996h-55.2344v120.004h55.2344v80.5039c0 71.957 58.5391 130.496 130.492 130.496h84.75v-130.008h-64.3281c-11.5273 0 -20.9102 -9.37891 -20.9102 -20.9062v-60.082h55.2344v-120.008h-55.2344v-180.996zM85.2344 -34h70.0039v180.996
h55.2344v60.0039h-55.2344v90.082c0 28.0742 22.8398 50.9102 50.9102 50.9102h34.3281v70.0078h-54.75c-55.4102 0 -100.492 -45.082 -100.492 -100.492v-110.504h-55.2344v-60.0078h55.2344v-180.996zM85.2344 -34z" />
    <glyph glyph-name="035-quote" unicode="&#xf122;" 
d="M511.885 291.115c0.141602 -3.55273 7.30859 -197.729 -118.782 -290.312c-113.713 -83.4922 8.95605 17.9541 36.377 175.259c-12.3906 -4.24805 -25.6328 -6.66016 -39.4668 -6.66016c-67.3086 0 -121.88 54.5654 -121.88 121.88
c0 67.3135 54.5654 121.88 121.879 121.88c67.3125 0 121.88 -54.5674 121.88 -121.88c0 -0.0556641 -0.00683594 -0.111328 -0.00683594 -0.166016zM121.88 169.402c-67.3086 0 -121.88 54.5645 -121.88 121.879c0 67.3135 54.5654 121.88 121.88 121.88
c67.3125 0 121.879 -54.5674 121.879 -121.88c0 -0.0556641 -0.00683594 -0.111328 -0.00683594 -0.166016c0.142578 -3.55273 7.30859 -197.729 -118.782 -290.312c-113.714 -83.4922 8.95508 17.9541 36.3828 175.259
c-12.3965 -4.24805 -25.6387 -6.66016 -39.4727 -6.66016z" />
    <glyph glyph-name="042-star-of-favorites-outline" unicode="&#xf128;" 
d="M494.766 275.457c6.65332 -5.85156 11.624 -13.4209 14.377 -21.8877c2.75 -8.46777 3.17773 -17.5127 1.23535 -26.1562c-2.09473 -9.31836 -6.84766 -17.7969 -13.7451 -24.5215l-84.4502 -82.3193l19.9355 -116.235
c2.46973 -14.4043 -1.49512 -29.0479 -10.8789 -40.1787c-9.45508 -11.2139 -23.249 -17.6445 -37.8447 -17.6445c-7.9502 0 -15.9053 1.97266 -23.0078 5.70801l-104.387 54.8789l-104.387 -54.8789c-7.10254 -3.73535 -15.0586 -5.70801 -23.0078 -5.70801
c-14.5967 0 -28.3906 6.43066 -37.8447 17.6445c-9.38379 11.1309 -13.3486 25.7754 -10.8789 40.1787l19.9365 116.235l-84.4502 82.3193c-6.89844 6.72363 -11.6514 15.2031 -13.7461 24.5215c-1.94141 8.64355 -1.51367 17.6885 1.23633 26.1562
c2.75195 8.46777 7.72168 16.0371 14.375 21.8877c7.1709 6.30762 16.001 10.374 25.5342 11.7588l116.707 16.958l52.1924 105.755c4.26367 8.63867 10.8594 15.7793 19.0732 20.6514c7.62109 4.51855 16.3555 6.90723 25.2588 6.90723s17.6377 -2.38867 25.2588 -6.90723
c8.21484 -4.87207 14.8105 -12.0137 19.0742 -20.6514l52.1924 -105.754l116.708 -16.959c9.53223 -1.38477 18.3613 -5.45117 25.5332 -11.7588zM471.204 228.977c7.72168 7.52637 3.46094 20.6396 -7.20996 22.1904l-128.891 18.7285
c-4.23828 0.616211 -7.90039 3.27832 -9.7959 7.11719l-57.6426 116.795c-2.38477 4.83496 -7.02441 7.25293 -11.665 7.25293c-4.63965 0 -9.28027 -2.41797 -11.666 -7.25293l-57.6426 -116.795c-1.89551 -3.83984 -5.55859 -6.50098 -9.7959 -7.11719l-128.892 -18.7285
c-10.6699 -1.55078 -14.9307 -14.6641 -7.20996 -22.1904l93.2686 -90.9131c3.06641 -2.98926 4.46582 -7.29492 3.74121 -11.5156l-22.0176 -128.37c-1.44141 -8.40918 5.23926 -15.2383 12.8203 -15.2383c2 0 4.06445 0.476562 6.05664 1.52344l115.283 60.6084
c1.89551 0.996094 3.97559 1.49414 6.05469 1.49414s4.15918 -0.498047 6.05371 -1.49414l115.283 -60.6084c1.99316 -1.04688 4.05566 -1.52344 6.05664 -1.52344c7.58008 0 14.2617 6.8291 12.8193 15.2383l-22.0166 128.37
c-0.724609 4.2207 0.674805 8.52637 3.74121 11.5156zM383.394 -53.9121c-8.01855 0 -16.042 1.99121 -23.2051 5.75781l-104.188 54.7754l-104.188 -54.7764c-7.16406 -3.7666 -15.1885 -5.75781 -23.2061 -5.75781c-14.7227 0 -28.6348 6.48633 -38.1699 17.7969
c-9.46484 11.2266 -13.4639 25.9971 -10.9727 40.5244l19.8984 116.015l-84.29 82.1631c-6.95801 6.78125 -11.751 15.334 -13.8643 24.7324c-1.95898 8.71875 -1.52734 17.8408 1.24707 26.3809c2.77539 8.54004 7.78906 16.1738 14.498 22.0752
c7.23438 6.36133 16.1406 10.4629 25.7549 11.8594l116.486 16.9268l52.0938 105.555c4.2998 8.71191 10.9521 15.9141 19.2383 20.8281c7.68652 4.55762 16.4951 6.9668 25.4756 6.9668c8.97949 0 17.7881 -2.40918 25.4756 -6.9668
c8.28516 -4.91309 14.9375 -12.1162 19.2373 -20.8281l52.0947 -105.555l116.487 -16.9268c9.61328 -1.39551 18.5176 -5.49707 25.752 -11.8594c6.71094 -5.90137 11.7246 -13.5352 14.499 -22.0762c2.77539 -8.54004 3.20605 -17.6621 1.24609 -26.3809
c-2.11133 -9.39844 -6.90625 -17.9502 -13.8643 -24.7314l-84.29 -82.1631l19.8984 -116.015c2.49121 -14.5273 -1.50781 -29.2979 -10.9736 -40.5244c-9.53613 -11.3096 -23.4492 -17.7959 -38.1699 -17.7959zM255.999 7.58008l0.198242 -0.103516l104.386 -54.8789
c7.04102 -3.70312 14.9297 -5.65918 22.8096 -5.65918c14.4707 0 28.1455 6.37598 37.5195 17.4932c9.30273 11.0352 13.2334 25.5537 10.7852 39.833l-19.9736 116.456l84.6113 82.4756c6.83789 6.66602 11.5508 15.0723 13.626 24.3096
c1.92676 8.56934 1.50293 17.5361 -1.22461 25.9316c-2.72754 8.39453 -7.65527 15.8994 -14.251 21.7002c-7.11035 6.25293 -15.8633 10.2842 -25.3145 11.6562l-116.93 16.9902l-0.0986328 0.200195l-52.1914 105.757c-4.22754 8.56445 -10.7666 15.6436 -18.9092 20.4727
c-7.55664 4.48047 -16.2148 6.84863 -25.042 6.84863s-17.4863 -2.36816 -25.042 -6.84863c-8.14258 -4.8291 -14.6816 -11.9082 -18.9092 -20.4727l-52.292 -105.955l-0.220703 -0.0322266l-116.708 -16.959c-9.4502 -1.37305 -18.2041 -5.40332 -25.3145 -11.6572
c-6.59473 -5.80078 -11.5234 -13.3037 -14.251 -21.6992s-3.15137 -17.3623 -1.22559 -25.9316c2.07715 -9.23828 6.78906 -17.6445 13.6279 -24.3105l84.6104 -82.4756l-0.0371094 -0.220703l-19.9365 -116.235c-2.44922 -14.2793 1.48145 -28.7979 10.7852 -39.833
c9.37305 -11.1172 23.0479 -17.4932 37.5186 -17.4932c7.88086 0 15.7686 1.95703 22.8105 5.65918zM383.394 -17.4844c-2.16602 0 -4.26953 0.52832 -6.25391 1.57324l-115.283 60.6074c-3.5957 1.8916 -8.11328 1.8916 -11.7129 0l-115.283 -60.6074
c-1.9834 -1.04492 -4.08789 -1.57324 -6.25391 -1.57324c-3.95996 0 -7.7207 1.7666 -10.3193 4.84766c-2.56543 3.04297 -3.60156 6.90918 -2.91992 10.8877l22.0176 128.37c0.700195 4.08301 -0.65332 8.24707 -3.62012 11.1387l-93.2666 90.9121
c-3.68945 3.5957 -4.99121 8.87207 -3.40039 13.7715c1.5918 4.89941 5.74805 8.40332 10.8457 9.14355l128.892 18.7295c4.09961 0.595703 7.64258 3.16992 9.47559 6.88379l57.6426 116.795c2.2793 4.62012 6.89453 7.48926 12.0469 7.48926
c5.15137 0 9.76758 -2.86914 12.0459 -7.48926l57.6426 -116.795c1.83398 -3.71484 5.37598 -6.28906 9.47656 -6.88379l128.891 -18.7295c5.09766 -0.740234 9.25488 -4.24414 10.8467 -9.14355c1.59082 -4.89941 0.289062 -10.1758 -3.40039 -13.7715l-93.2676 -90.9131
c-2.9668 -2.89062 -4.31934 -7.05469 -3.61914 -11.1387l22.0176 -128.37c0.681641 -3.97754 -0.355469 -7.84375 -2.9209 -10.8867c-2.59766 -3.08105 -6.3584 -4.84766 -10.3184 -4.84766zM255.999 46.9912c2.16992 0 4.33203 -0.533203 6.25293 -1.54297
l115.283 -60.6074c1.86133 -0.977539 3.83203 -1.47461 5.8584 -1.47461c3.70801 0 7.2334 1.65723 9.66895 4.54785c2.40137 2.84766 3.37109 6.46777 2.73145 10.1934l-22.0166 128.37c-0.748047 4.35938 0.696289 8.80469 3.86426 11.8916l93.2666 90.9131
c3.4541 3.36719 4.6748 8.31055 3.18457 12.8984c-1.49219 4.58984 -5.38477 7.87207 -10.1611 8.56641l-128.891 18.7285c-4.375 0.636719 -8.15723 3.38379 -10.1152 7.34961l-57.6426 116.795c-2.13574 4.32715 -6.45898 7.01465 -11.2842 7.01465
s-9.14941 -2.6875 -11.2842 -7.01465l-57.6426 -116.795c-1.95703 -3.96582 -5.73828 -6.71387 -10.1152 -7.34961l-128.892 -18.7295c-4.77539 -0.693359 -8.66797 -3.97559 -10.1582 -8.56543c-1.49121 -4.58887 -0.270508 -9.53125 3.18359 -12.8994l93.2666 -90.9131
c3.16699 -3.08691 4.6123 -7.53223 3.86328 -11.8916l-22.0166 -128.37c-0.638672 -3.72559 0.332031 -7.34668 2.73242 -10.1943c2.43555 -2.88867 5.95996 -4.54688 9.66895 -4.54688c2.02637 0 3.99805 0.49707 5.8584 1.47461l115.283 60.6074
c1.92188 1.01074 4.08301 1.54395 6.25195 1.54395z" />
    <glyph glyph-name="010-play-button-1" unicode="&#xf109;" 
d="M58.5352 -61.083c-7.39844 4.10254 -11.9893 11.8955 -11.9893 20.3555v465.455c0 8.45996 4.59082 16.2529 11.9893 20.3555c7.39941 4.10059 16.4414 3.86523 23.6172 -0.620117l372.364 -232.729c6.80469 -4.25195 10.9375 -11.7109 10.9375 -19.7354
s-4.13281 -15.4824 -10.9375 -19.7354l-372.364 -232.726c-3.7666 -2.35352 -8.04688 -3.53711 -12.334 -3.53711c-3.88184 0 -7.7666 0.967773 -11.2832 2.91699z" />
    <glyph glyph-name="040-reply-all-button" unicode="&#xf126;" 
d="M149.333 288l-85.333 -85.333l85.333 -85.334v-64l-149.333 149.334l149.333 149.333v-64zM277.333 266.667c149.334 -21.334 213.334 -128 234.667 -234.667c-53.333 74.667 -128 108.8 -234.667 108.8v-87.4668l-149.333 149.334l149.333 149.333v-85.333z" />
    <glyph glyph-name="011-chat" unicode="&#xf10a;" 
d="M85.333 230.698c-4.71875 0 -8.5332 3.82324 -8.5332 8.53418c0 4.70996 3.81445 8.5332 8.5332 8.5332h110.934c4.71875 0 8.5332 -3.82324 8.5332 -8.5332c0 -4.71094 -3.81445 -8.53418 -8.5332 -8.53418h-110.934zM307.2 196.565
c4.71875 0 8.5332 -3.82324 8.5332 -8.5332c0 -4.71094 -3.81445 -8.5332 -8.5332 -8.5332h-221.867c-4.71875 0 -8.5332 3.82227 -8.5332 8.5332c0 4.70996 3.81445 8.5332 8.5332 8.5332h221.867zM307.2 145.365c4.71875 0 8.5332 -3.82324 8.5332 -8.5332
s-3.81445 -8.5332 -8.5332 -8.5332h-221.867c-4.71875 0 -8.5332 3.82324 -8.5332 8.5332s3.81445 8.5332 8.5332 8.5332h221.867zM461.414 426.368c27.8955 -0.00878906 50.5859 -22.707 50.5859 -50.6025v-180.421c0 -27.8955 -22.6982 -50.5938 -50.6025 -50.5938
h-9.13086v-85.333c0 -3.52441 -2.16699 -6.69043 -5.46094 -7.96191c-0.999023 -0.383789 -2.04004 -0.572266 -3.07227 -0.572266c-2.35547 0 -4.66797 0.981445 -6.31445 2.79102l-44.8857 49.374v-0.964844c0 -27.8955 -22.6982 -50.5938 -50.6025 -50.5938
l-141.875 -0.580078l-82.8076 -91.0938c-1.64746 -1.80859 -3.95996 -2.79004 -6.31445 -2.79004c-1.0332 0 -2.07422 0.1875 -3.07227 0.571289c-3.29395 1.27148 -5.46094 4.4375 -5.46094 7.96191v85.333h-51.7979c-27.9043 0 -50.6025 22.6904 -50.6025 50.5947v180.402
c0 27.9043 22.6982 50.6035 50.6025 50.6035l68.8643 0.144531v43.7246c0 27.9043 22.6982 50.6035 50.6025 50.6035zM375.467 102.093v23.0488v157.363c0 18.4912 -15.0439 33.5361 -33.5361 33.5361l-213.914 -0.444336h-0.0166016v0l-77.3799 -0.162109
c-18.5088 0 -33.5537 -15.0439 -33.5537 -33.5361v-180.403c0 -18.4824 15.0449 -33.5273 33.5361 -33.5273h60.3311c4.71875 0 8.5332 -3.82227 8.5332 -8.5332v-71.7998l70.4854 77.543c1.60449 1.7666 3.89062 2.78125 6.28027 2.79004l145.664 0.597656
c18.5264 0 33.5703 15.0352 33.5703 33.5273zM494.934 195.362h0.0078125v180.411c0 18.4922 -15.0439 33.5361 -33.5352 33.5361h-0.0175781l-291.336 0.597656c-18.4756 0 -33.5195 -15.0439 -33.5195 -33.5361v-43.6904l205.381 0.417969
c27.9209 0 50.6191 -22.6982 50.6191 -50.6025v-154.061l42.667 -46.9336v71.7998c0 4.70996 3.81445 8.5332 8.5332 8.5332h17.6641c18.4912 0 33.5361 15.0352 33.5361 33.5273z" />
    <glyph glyph-name="052-left-quotes-sign" unicode="&#xf132;" 
d="M0.108398 92.7188c0 0.0615234 0.00683594 0.111328 0.00683594 0.166016c-0.141602 3.55859 -7.30859 197.729 118.782 290.312c113.714 83.4912 -8.95508 -17.9541 -36.3828 -175.26c12.3965 4.24902 25.6387 6.66113 39.4727 6.66113
c67.3145 0 121.88 -54.5645 121.88 -121.879c0 -67.3135 -54.5654 -121.88 -121.88 -121.88c-67.3125 0 -121.879 54.5664 -121.879 121.88zM268.241 92.7188c0 0.0615234 0.00683594 0.111328 0.00683594 0.166016c-0.142578 3.55859 -7.30859 197.729 118.782 290.312
c113.714 83.4912 -8.95508 -17.9541 -36.3828 -175.26c12.3965 4.24902 25.6377 6.66113 39.4727 6.66113c67.3145 0 121.881 -54.5645 121.881 -121.879c0 -67.3135 -54.5654 -121.88 -121.88 -121.88c-67.3135 0 -121.88 54.5664 -121.88 121.88z" />
    <glyph glyph-name="023-text-quotes" unicode="&#xf116;" 
d="M396.399 356.406c65.3486 0 115.601 -52.957 115.601 -118.294v-0.0771484c0 -116.032 -91.6826 -210.431 -207.715 -210.441c-16.3486 0 -26.8662 13.2559 -26.8662 29.5928s13.1562 29.5928 29.5039 29.5928c35.5332 0 67.9971 12.4023 93.8438 32.9844
c-0.654297 -0.0107422 -1.64062 -0.0996094 -2.29395 -0.0996094c-65.3711 0 -119.059 53.001 -119.059 118.371s51.6152 118.371 116.985 118.371zM119.147 356.406c65.3477 0 115.767 -52.957 115.767 -118.294v-0.0771484
c0 -116.032 -91.8486 -210.431 -207.882 -210.441c-16.3477 0 -27.0322 13.2559 -27.0322 29.5928s13.167 29.5928 29.5156 29.5928c35.5332 0 68.0078 12.4023 93.8545 32.9844c-0.654297 -0.0107422 -1.61816 -0.0996094 -2.27246 -0.0996094
c-65.3809 0 -119.025 53.001 -119.025 118.371s51.7051 118.371 117.075 118.371z" />
    <glyph glyph-name="034-house-1" unicode="&#xf121;" 
d="M511.865 226.513c0.919922 -11.9814 -2.88086 -23.6074 -10.7012 -32.7354c-12.1279 -14.1338 -31.6328 -19.3301 -49.167 -13.1299v-229.581c0 -8.2832 -6.71484 -14.999 -14.999 -14.999h-361.987c-8.28223 0 -14.7988 6.71484 -14.7988 14.999v229.584
c-16.9854 -5.96973 -36.9111 -1.3584 -49.3496 13.1074c-16.3203 19.0498 -13.8877 47.4043 4.86621 63.4727l212.043 179.836c16.916 14.4932 41.5488 14.4951 58.5195 -0.0429688l75.9111 -64.6953v30.7275c0 8.2832 6.51465 14.999 14.7988 14.999h59.998
c8.2832 0 14.999 -6.71484 14.999 -14.999v-107.867l44.2861 -37.96c9.12598 -7.82031 14.6602 -18.7275 15.5811 -30.7158zM392 388.057v-41.4404l30.1992 -25.7139v67.1543h-30.1992zM317.202 -33.9346v120.196h-122.194v-120.196h122.194zM422.199 -33.9346h0.000976562
v236.299l-165.246 141.474l-166.943 -141.613v-236.159h75.1973v134.995c0 8.2832 6.51562 14.999 14.7998 14.999h151.995c8.2832 0 14.999 -6.71484 14.999 -14.999v-134.995h75.1973zM478.39 213.306c5.37793 6.27441 4.65137 15.7646 -1.62695 21.1445l-209.994 179.796
c-5.65625 4.84668 -13.8701 4.8457 -19.5303 -0.00195312l-212.044 -179.837c-6.22656 -5.33594 -6.9541 -14.8242 -1.56934 -21.1094c5.37891 -6.25684 14.8789 -6.99023 21.1611 -1.61523c0.793945 0.673828 188.456 159.864 192.516 163.307
c5.61914 4.7666 13.8691 4.74707 19.4639 -0.0507812l190.466 -163.264c6.38672 -5.47656 15.8408 -4.56738 21.1582 1.63086zM302.003 268.062c8.2832 0 15 -6.71484 14.999 -14.999v-89.9961c0 -8.2832 -6.71582 -14.999 -14.999 -14.999h-91.9961
c-8.2832 0 -14.7998 6.71484 -14.7998 14.999v89.9961c0 8.2832 6.51562 14.999 14.7998 14.999h91.9961zM287.203 178.064v59.998h-62.1973v-59.998h62.1973zM257.001 41.0654c0 8.2832 6.71484 14.999 14.999 14.999c8.2832 0 14.999 -6.71582 14.999 -14.999
c0 -8.28418 -6.71582 -14.999 -14.999 -14.999c-8.28418 0 -14.999 6.71484 -14.999 14.999z" />
    <glyph glyph-name="041-clock-circular-outline" unicode="&#xf127;" 
d="M256 448c141.161 0 256 -114.839 256 -256s-114.839 -256 -256 -256s-256 114.839 -256 256s114.839 256 256 256zM256 -8.04395c110.307 0 200.044 89.7373 200.044 200.044c0 110.302 -89.7373 200.044 -200.044 200.044s-200.044 -89.7422 -200.044 -200.044
c0 -110.307 89.7373 -200.044 200.044 -200.044zM278.159 191.692l74.4209 -74.418c8.47266 -8.4668 8.4668 -22.1973 0 -30.6699c-8.46582 -8.47168 -22.1963 -8.47168 -30.6689 0l-80.7734 80.7676c-4.50391 4.50488 -6.53516 10.4922 -6.25 16.3896
c-0.0166016 0.341797 -0.100586 0.661133 -0.100586 1.00195v114.225c0 11.9805 9.70898 21.6885 21.6885 21.6885c11.9756 0 21.6836 -9.70801 21.6836 -21.6885v-107.296z" />
    <glyph glyph-name="036-engineer-1" unicode="&#xf123;" 
d="M486.399 23.041c15.3594 -8.53418 25.6006 -24.7471 25.5996 -41.8135v-36.6934c0 -5.12012 -3.41309 -8.5332 -8.5332 -8.5332h-204.8h-3.41309h-78.5068h-3.41309h-204.8c-5.12012 0 -8.5332 3.41309 -8.5332 8.5332v36.6934
c0 17.9199 9.38672 34.1328 25.5996 41.8135c50.9297 27.0078 89.9961 42.1504 124.772 47.958l-3.59863 4.94824c-1.70703 1.70703 -1.70703 5.12012 -1.70703 6.82715l7.99707 31.9873c-21.1514 29.9004 -33.5967 67.2812 -33.5967 102.84v34.1328h-8.5332h-17.0664
c-5.12012 0 -8.5332 3.41309 -8.5332 8.5332s3.41309 8.5332 8.5332 8.5332h8.53223v8.53223c0 67.4131 44.374 124.587 110.934 143.36v1.70703c0 14.5068 11.9463 25.5996 25.5996 25.5996h34.1338c14.5068 0 25.5996 -11.9463 25.5996 -25.5996v-1.70801
c66.5596 -18.7734 110.934 -75.9473 110.934 -143.36v-8.53223h8.53223c5.12012 0 8.5332 -3.41309 8.5332 -8.5332s-3.41309 -8.5332 -8.5332 -8.5332h-17.0664h-8.5332v-34.1328c0 -35.5586 -12.4453 -72.9395 -33.5967 -102.839l7.99707 -31.9873
c0.853516 -2.56055 0 -5.12012 -1.70703 -6.82715l-3.59863 -4.94824c34.7773 -5.80664 73.8428 -20.9502 124.772 -47.958zM250.883 30.9395l-15.3623 -35.2051h41.624l-8.3418 18.7676l-12.7549 28.0596zM229.034 -21.333l-5.12012 -25.5996h63.8623l-4.87598 25.5996
h-53.8662zM345.6 98.1338c-1.28418 -1.38379 -2.58496 -2.73145 -3.89941 -4.05078l-0.158203 -0.161133c-0.21875 -0.219727 -0.439453 -0.435547 -0.65918 -0.652344c-19.8262 -19.8389 -44.373 -33.6426 -71.8721 -36.9971l23.0049 -51.7617l11.2627 15.4648
l35.4941 49.1455c0.452148 0.677734 0.966797 1.22949 1.52246 1.68359l8.71777 11.9697zM334.482 385.588l-7.65625 -37.4277l39.2539 7.67969c-7.86426 10.2227 -17.9043 19.7188 -28.7822 27.8242c-0.928711 0.65332 -1.86816 1.29395 -2.81543 1.92383zM185.174 348.16
l-7.65625 37.4277c-0.947266 -0.629883 -1.88672 -1.27051 -2.81445 -1.92285c-10.8779 -8.10547 -20.9189 -17.6016 -28.7832 -27.8252zM119.467 277.333h0.000976562v-8.53223h8.53223h255.999h8.53223v8.53223c0 22.9883 -5.85449 44.6611 -16.4443 63.5469
l-58.6484 -12.3477h-1.70703c-2.55957 0 -4.26562 0.853516 -5.97266 2.56055s-2.55957 5.12012 -2.55957 7.67969l11.4785 55.8682c-6.35352 3.0957 -13.0381 5.74316 -20.0127 7.9082v-22.8145c0 -5.12012 -3.41309 -8.5332 -8.5332 -8.5332
s-8.53223 3.41309 -8.53223 8.5332v34.1328v8.5332c0 5.12012 -4.2666 8.5332 -8.5332 8.5332h-34.1338c-5.12012 0 -8.5332 -4.2666 -8.5332 -8.5332v-8.53418v-34.1328c0 -5.12012 -3.41211 -8.5332 -8.53223 -8.5332s-8.5332 3.41309 -8.5332 8.5332v22.8154
c-6.75 -2.09668 -13.2246 -4.64648 -19.3945 -7.61426l11.7148 -57.0146c0.852539 -2.56055 0 -5.97363 -2.56055 -7.68066c-2.55957 -0.853516 -4.2666 -1.70703 -6.82617 -1.70703h-1.70703l-59.0312 11.6514c-10.3467 -18.7207 -16.0625 -40.1426 -16.0625 -62.8506z
M136.533 251.733h-0.000976562v-34.1328c0 -37.208 12.7637 -70.2734 31.9287 -95.4072l0.498047 -0.166016l2.55957 -2.55957c11.6484 -14.5596 24.7168 -26.0664 38.6104 -34.0488c13.7139 -7.66406 28.1807 -12.1445 42.3164 -12.793
c1.06055 0.503906 2.24316 0.760742 3.55371 0.760742c1.30469 0 2.6084 -0.250977 3.77051 -0.75c23.0928 1.12305 47.0586 12.4609 67.1504 31.1807c4.73438 4.70605 9.26562 9.9248 13.5596 15.6504l2.55957 2.55957l0.498047 0.166016
c19.1641 25.1328 31.9287 58.1982 31.9287 95.4072v34.1328h-238.933zM242.988 56.2705c-28.0566 3.42188 -53.042 17.7217 -73.0742 38.208c-1.18457 1.19531 -2.35742 2.40918 -3.51465 3.6543l-3.41309 -15.3594l9.35645 -12.8477
c0.311523 -0.265625 0.612305 -0.535156 0.883789 -0.806641l35.4941 -49.1455l11.2627 -15.4648zM17.0664 -18.7725v-28.1592h189.101l6.46484 32.3262l-50.9229 70.0176c-34.8799 -4.33203 -74.0361 -18.834 -128.429 -47.7314
c-10.2402 -5.11914 -16.2139 -15.3604 -16.2139 -26.4531zM494.934 -46.9336v28.1602c0 11.0928 -5.97461 21.334 -16.2139 27.3066c-53.2627 27.8994 -93.1191 42.3906 -127.877 47.6357l-51.4736 -70.7764l6.46484 -32.3262h189.1z" />
    <glyph glyph-name="056-mail-1" unicode="&#xf136;" 
d="M459.392 447.472c29.627 -0.0332031 53.6357 -24.0459 53.6689 -53.6689v-264.696c-0.0332031 -29.626 -24.042 -53.6348 -53.6689 -53.668h-405.723c-29.627 0.0332031 -53.6357 24.042 -53.6689 53.668v264.696c0.0332031 29.623 24.042 53.6309 53.6689 53.6689
h405.723zM363.971 261.526l127.623 -123.887v224.055zM53.6689 426.004c-17.7783 -0.0205078 -32.1807 -14.4277 -32.2012 -32.2012v-4.7793l210.737 -162.097c15.5186 -12.1553 37.3213 -12.1758 52.8604 -0.0458984l206.528 162.101v4.82129
c-0.0214844 17.7734 -14.4277 32.1807 -32.2021 32.2012h-405.723zM152.889 260.852l-131.421 101.086v-224.734zM459.392 96.9053c11.2168 0.00878906 21.6191 5.8457 27.4678 15.4131l-139.929 135.824l-48.6455 -38.168
c-23.2744 -18.2012 -55.9502 -18.209 -79.2324 -0.0205078l-48.9268 37.6309l-143.87 -135.351c5.86133 -9.52148 16.2344 -15.3242 27.4131 -15.3291h405.723zM459.392 96.9053z" />
    <glyph glyph-name="048-chat-1" unicode="&#xf12e;" 
d="M412.862 174.536c0 -26.0391 -21.2285 -47.2686 -47.1631 -47.1641h-211.869l-59.7129 -69.124c-3.66016 -4.18262 -8.88867 -6.58789 -14.3262 -6.58789v0c-10.5625 0 -19.0332 8.4707 -19.0332 18.9277v56.6797h-13.4902c-26.0391 0 -47.2676 21.2295 -47.2676 47.2686
v188.026c0 26.0391 21.2285 47.2676 47.2676 47.2676h318.327c26.0391 0 47.2676 -21.2285 47.2676 -47.2676v-188.026zM147.869 152.889v0h217.726c11.9219 0 21.6475 9.72559 21.6475 21.6475v188.026c0 11.9209 -9.72559 21.6465 -21.6475 21.6465h-318.327
c-11.9209 0 -21.6465 -9.72559 -21.6465 -21.6465v-187.922c0 -11.9219 9.72559 -21.6475 21.6465 -21.6475h26.1445c7.11035 0 12.8623 -5.75098 12.8623 -12.8623v-51.5557l51.8691 59.9219c2.50977 2.82324 5.96094 4.3916 9.72559 4.3916zM417.987 -19.2422
l-59.8174 68.915h-186.562c-7.11035 0 -12.8623 5.75195 -12.8623 12.8633s5.75195 12.8623 12.8623 12.8623h192.419c3.76465 0 7.32031 -1.56836 9.72559 -4.3916l51.8691 -59.9219v51.5557c0 7.11133 5.75098 12.8623 12.8623 12.8623h26.249
c11.9209 0 21.6465 9.72559 21.6465 21.6475v188.026c0 11.9209 -9.72559 21.6465 -21.6465 21.6465c-7.11133 0 -12.8633 5.75195 -12.8633 12.8633c0 7.00586 5.75195 12.7578 12.8633 12.7578c26.0391 0 47.2676 -21.2285 47.2676 -47.2676v-188.026
c0 -26.0391 -21.2285 -47.2676 -47.2676 -47.2676h-13.4902v-56.6807c0 -8.05176 -4.81055 -14.9541 -12.3398 -17.7773c-2.19629 -0.836914 -4.49707 -1.25488 -6.69336 -1.25488c-5.33301 0 -10.5615 2.30078 -14.2217 6.58789zM191.163 264.053
c0 8.43164 6.83594 15.2676 15.2686 15.2676c8.43164 0 15.2676 -6.83594 15.2676 -15.2676c0 -8.43262 -6.83594 -15.2686 -15.2676 -15.2686c-8.43262 0 -15.2686 6.83594 -15.2686 15.2686zM242.301 264.053c0 8.43164 6.83594 15.2676 15.2676 15.2676
c8.43262 0 15.2686 -6.83594 15.2686 -15.2676c0 -8.43262 -6.83594 -15.2686 -15.2686 -15.2686c-8.43164 0 -15.2676 6.83594 -15.2676 15.2686zM140.026 264.053c0 8.43164 6.83594 15.2676 15.2676 15.2676c8.43262 0 15.2686 -6.83594 15.2686 -15.2676
c0 -8.43262 -6.83594 -15.2686 -15.2686 -15.2686c-8.43164 0 -15.2676 6.83594 -15.2676 15.2686z" />
    <glyph glyph-name="025-facebook" unicode="&#xf118;" 
d="M75 -64c-41.3555 0 -75 33.6445 -75 75v362c0 41.3555 33.6445 75 75 75h362c41.3555 0 75 -33.6445 75 -75v-362c0 -41.3555 -33.6445 -75 -75 -75h-135v182h77.293l10 60h-87.293v60c0 16.543 13.457 30 30 30h60v60h-75c-41.3555 0 -75 -33.6445 -75 -75v-75h-60v-60
h60v-182h-167zM30 373v-362c0 -24.8125 20.1875 -45 45 -45h137v122h-60v120h60v45c0 57.8984 47.1016 105 105 105h105v-120h-90v-30h92.707l-20 -120h-72.707v-122h105c24.8125 0 45 20.1875 45 45v362c0 24.8125 -20.1875 45 -45 45h-362
c-24.8125 0 -45 -20.1875 -45 -45zM30 373z" />
    <glyph glyph-name="031-instagram-1" unicode="&#xf11e;" 
d="M261.039 -64c-1.69531 0 -3.39062 0 -5.09766 0.0078125c-40.1328 -0.0976562 -77.2148 0.921875 -113.277 3.11719c-33.0625 2.01172 -63.2422 13.4375 -87.2812 33.0391c-23.1953 18.9141 -39.0352 44.4883 -47.0781 76.0039
c-7 27.4375 -7.37109 54.3711 -7.72656 80.4219c-0.257812 18.6914 -0.523438 40.8398 -0.578125 63.3633c0.0546875 22.6172 0.320312 44.7656 0.578125 63.457c0.355469 26.0469 0.726562 52.9805 7.72656 80.4219c8.04297 31.5156 23.8828 57.0898 47.0781 76.0039
c24.0391 19.6016 54.2188 31.0273 87.2852 33.0391c36.0625 2.19141 73.1523 3.21484 113.371 3.11719c40.1445 0.0859375 77.2148 -0.925781 113.277 -3.11719c33.0625 -2.01172 63.2422 -13.4375 87.2812 -33.0391c23.1992 -18.9141 39.0352 -44.4883 47.0781 -76.0039
c7 -27.4375 7.37109 -54.375 7.72656 -80.4219c0.257812 -18.6914 0.527344 -40.8398 0.578125 -63.3633v-0.09375c-0.0507812 -22.5234 -0.320312 -44.6719 -0.578125 -63.3633c-0.355469 -26.0469 -0.722656 -52.9805 -7.72656 -80.4219
c-8.04297 -31.5156 -23.8789 -57.0898 -47.0781 -76.0039c-24.0391 -19.6016 -54.2188 -31.0273 -87.2812 -33.0391c-34.5352 -2.10156 -70.0117 -3.125 -108.277 -3.125zM255.941 -23.9922c39.4805 -0.09375 75.7305 0.902344 110.945 3.04297
c25 1.51953 46.6758 9.63281 64.4336 24.1133c16.4141 13.3867 27.7188 31.8555 33.5977 54.8945c5.82812 22.8398 6.16406 47.3633 6.48828 71.0781c0.253906 18.5664 0.519531 40.5586 0.574219 62.8633c-0.0546875 22.3086 -0.320312 44.2969 -0.574219 62.8633
c-0.324219 23.7148 -0.660156 48.2383 -6.48828 71.082c-5.87891 23.0391 -17.1836 41.5078 -33.5977 54.8945c-17.7578 14.4766 -39.4336 22.5898 -64.4336 24.1094c-35.2148 2.14453 -71.4648 3.13281 -110.852 3.04688
c-39.4727 0.09375 -75.7266 -0.902344 -110.941 -3.04688c-25 -1.51953 -46.6758 -9.63281 -64.4336 -24.1094c-16.4141 -13.3867 -27.7188 -31.8555 -33.5977 -54.8945c-5.82812 -22.8438 -6.16406 -47.3633 -6.48828 -71.082
c-0.253906 -18.582 -0.519531 -40.5859 -0.574219 -62.9102c0.0546875 -22.2266 0.320312 -44.2344 0.574219 -62.8164c0.324219 -23.7148 0.660156 -48.2383 6.48828 -71.0781c5.87891 -23.0391 17.1836 -41.5078 33.5977 -54.8945
c17.7578 -14.4766 39.4336 -22.5898 64.4336 -24.1094c35.2148 -2.14453 71.4766 -3.14453 110.848 -3.04688zM254.988 67c-68.9219 0 -125 56.0742 -125 125s56.0781 125 125 125c68.9258 0 125 -56.0742 125 -125s-56.0742 -125 -125 -125zM254.988 277
c-46.8672 0 -85 -38.1328 -85 -85s38.1328 -85 85 -85c46.8711 0 85 38.1328 85 85s-38.1289 85 -85 85zM393.988 357c16.5703 0 30 -13.4297 30 -30s-13.4297 -30 -30 -30c-16.5664 0 -30 13.4297 -30 30s13.4336 30 30 30zM393.988 357z" />
    <glyph glyph-name="006-calendar" unicode="&#xf105;" 
d="M452 408c33.084 0 60 -26.916 60 -60v-352c0 -33.084 -26.916 -60 -60 -60h-392c-33.084 0 -60 26.916 -60 60v352c0 33.084 26.916 60 60 60h24v40h40v-40h264v40h40v-40h24zM472 -4v264h-432v-264c0 -11.0283 8.97168 -20 20 -20h392c11.0283 0 20 8.97168 20 20z
M472 300v48c0 11.0283 -8.97168 20 -20 20h-24v-40h-40v40h-264v-40h-40v40h-24c-11.0283 0 -20 -8.97168 -20 -20v-48h432zM76 178v40h40v-40h-40zM156 178v40h40v-40h-40zM236 178v40h40v-40h-40zM316 178v40h40v-40h-40zM396 178v40h40v-40h-40zM76 98v40h40v-40h-40z
M156 98v40h40v-40h-40zM236 98v40h40v-40h-40zM316 98v40h40v-40h-40zM76 18v40h40v-40h-40zM156 18v40h40v-40h-40zM236 18v40h40v-40h-40zM316 18v40h40v-40h-40zM396 98v40h40v-40h-40z" />
    <glyph glyph-name="030-twitter-1" unicode="&#xf11d;" 
d="M512 392.035c-0.078125 -0.113281 -36.1367 -49.5547 -48.8438 -66.5195c-6.34375 -8.47266 -9.51172 -19.5117 -8.92188 -31.0781c3.90625 -76.4023 -14.8984 -149.82 -72.207 -201.434c-68.0391 -61.2773 -169.105 -72.7422 -258.871 -58.6641
c-40.3828 6.33594 -81.2539 27.457 -92.8203 33.7812l-30.3359 16.5859l32.8438 10.7969c35.8984 11.8086 57.7383 19.1289 84.7734 30.6016c-27.0703 13.1094 -47.9297 36.6914 -57.9727 67.1719l-7.64062 23.1992l6.26172 -0.960938
c-5.94141 5.99219 -10.6289 12.0664 -14.2695 17.5977c-12.9297 19.6406 -19.7773 43.6484 -18.3203 64.2148l1.4375 20.2461l12.1172 -4.69531c-5.11328 9.65625 -8.80469 19.9688 -10.9766 30.7812c-5.29297 26.3555 -0.863281 54.3594 12.4766 78.8516l10.5547 19.3828
l14.125 -16.9648c44.6602 -53.6484 101.227 -85.4727 168.363 -94.7891c-6.17578 42.5664 12.3398 78.9844 46.8359 100.191c42.125 25.8906 101.047 24.3164 140.688 -11.3125c15.0938 3.91797 74.6328 25.8203 74.6328 25.8203l-19.0742 -54.4727
c3.64062 0.304688 2.9375 0.183594 35.1445 1.66797zM439.168 343.484c4.49609 6 8.23438 11.0039 11.3516 15.1836l-16.5156 0.0117188l12.9375 36.9453c-6.21484 -2.21484 -12.5625 -4.25 -20.2969 -6.17188c-8.61719 -2.14062 -17.8242 0.324219 -24.6328 6.58984
c-31.5234 29.0312 -77.0352 26.375 -105.707 8.75391c-13.7266 -8.4375 -44.1602 -33.3633 -30.2734 -82.4531c0.625 -2.20703 0.6875 -2.26172 3.07422 -25.4453c-10.8438 2.51562 -118.57 -4.63672 -210.32 90.5273c-8.63672 -33.1172 3.14453 -67.5664 32.543 -90.4961
l40.8008 -31.8281l-51.4961 5.09375c-10.4883 1.03906 -16.9922 2.10547 -22.5703 3.60156c2.10156 -7.69922 5.60547 -16.0508 10.9688 -24.2031c8.16797 -12.4062 23.5781 -28.582 50.6133 -35.2031l55.6367 -13.625l-55.1758 -15.3672
c-7.23047 -2.01562 -14.4922 -3.23438 -22.0234 -3.67188c14.1836 -21.8047 37.2578 -35.2344 64.9688 -37.0078l57.8516 -3.70312l-52.3984 -24.8008c-37.5352 -17.7656 -60.7773 -26.9961 -90.875 -37.3516c14.8555 -6.08984 32.8047 -12.1875 50.1719 -14.9102
c95.8984 -15.043 181.254 3.66406 234.172 51.3242c45.3008 40.7969 66.2695 100.562 62.3281 177.629c-0.945312 18.5469 4.33203 36.5117 14.8672 50.5781zM439.168 343.484z" />
    <glyph glyph-name="020-chair-1" unicode="&#xf113;" 
d="M435.2 268.8c0 -14.1387 -11.4619 -25.5996 -25.6006 -25.5996v-52.7705c10.1924 -3.60254 17.0225 -13.2197 17.0674 -24.0293v-34.1338c0 -14.1387 -11.4619 -25.5996 -25.6006 -25.5996v-162.134c0 -4.71289 -3.82031 -8.5332 -8.5332 -8.5332h-34.1328
c-4.71289 0 -8.53418 3.82031 -8.53418 8.5332v128h-187.732v-128c0 -4.71289 -3.82129 -8.5332 -8.53418 -8.5332h-34.1328c-4.71289 0 -8.5332 3.82031 -8.5332 8.5332v162.134c-14.1387 0 -25.6006 11.4609 -25.6006 25.5996v34.1338
c0.0449219 10.8096 6.875 20.4268 17.0674 24.0293v52.7705c-14.1387 0 -25.6006 11.4609 -25.6006 25.5996s11.4619 25.6006 25.6006 25.6006h59.7334v128c0 14.1387 11.4609 25.5996 25.5996 25.5996h136.533c14.1387 0 25.5996 -11.4609 25.5996 -25.5996v-128h59.7334
c14.1387 0 25.6006 -11.4619 25.6006 -25.6006zM349.866 243.2v-51.2002h17.0674v51.2002h-17.0674zM179.2 422.4v-230.4h153.6v230.4c0 4.71191 -3.82031 8.5332 -8.5332 8.5332h-136.533c-4.71289 0 -8.5332 -3.82129 -8.5332 -8.5332zM93.8662 268.8
c0 -4.71191 3.82129 -8.5332 8.53418 -8.5332h59.7334v17.0664h-59.7334c-4.71289 0 -8.53418 -3.82031 -8.53418 -8.5332zM162.134 243.2h-17.0674v-51.2002h17.0674v51.2002zM128 243.2h-8.5332v-51.2002h8.5332v51.2002zM145.066 -46.9336v119.467h-17.0664v-119.467
h17.0664zM384 -46.9336v119.467h-17.0664v-119.467h17.0664zM384 89.5996v17.0674h-256v-17.0674h256zM409.6 132.267v34.1338c0 4.71191 -3.82031 8.5332 -8.5332 8.5332h-290.133c-4.71289 0 -8.5332 -3.82129 -8.5332 -8.5332v-34.1338
c0 -4.71289 3.82031 -8.5332 8.5332 -8.5332h290.133c4.71289 0 8.5332 3.82031 8.5332 8.5332zM384 192h8.5332v51.2002h-8.5332v-51.2002zM349.866 260.267h59.7334c4.71289 0 8.53418 3.82129 8.53418 8.5332c0 4.71289 -3.82129 8.5332 -8.53418 8.5332h-59.7334
v-17.0664z" />
    <glyph glyph-name="057-pin-1" unicode="&#xf137;" 
d="M446.812 -45.9658c2.25977 -4.77734 1.30762 -10.4531 -2.38379 -14.2314c-2.42871 -2.48438 -5.70605 -3.80273 -9.03711 -3.80273c-1.7334 0 -3.48242 0.358398 -5.13477 1.09277l-84.5576 37.6465l-84.5586 -37.6465c-3.27051 -1.45508 -7.00586 -1.45508 -10.2764 0
l-84.5586 37.6465l-84.5576 -37.6465c-4.82715 -2.14746 -10.4795 -1.06543 -14.1719 2.71094c-3.69434 3.77734 -4.64746 9.45508 -2.38867 14.2305l67.4971 142.782c1.29199 2.7334 3.52246 4.91211 6.28516 6.1416l33.7744 15.0312l-58.1846 97.5166
c-0.138672 0.234375 -0.269531 0.47168 -0.393555 0.712891c-11.5537 22.5566 -17.583 47.9639 -17.4307 73.4795c0.248047 41.7529 16.6992 81.1953 46.3252 111.065c29.6299 29.8721 68.9375 46.6416 110.686 47.2207c42.9854 0.603516 83.5029 -15.6875 114.087 -45.8496
c30.5889 -30.1689 47.4346 -70.4424 47.4346 -113.401c0 -25.5371 -5.86523 -49.9365 -17.4336 -72.5156c-0.125 -0.242188 -0.255859 -0.478516 -0.394531 -0.712891l-58.1855 -97.5176l33.5801 -14.9492c2.79883 -1.19141 5.13281 -3.37402 6.48047 -6.22266z
M136.473 228.094l108.68 -182.147c3.31641 -5.56055 8.69043 -6.16016 10.8486 -6.16016c2.15723 0 7.53125 0.599609 10.8486 6.16016l108.679 182.147c9.60352 18.8809 14.4727 39.2793 14.4727 60.6387c0 36.1445 -14.1729 70.0283 -39.9111 95.4111
c-25.7295 25.3779 -59.8271 39.0625 -95.9932 38.5762c-72.4072 -1.00293 -131.666 -60.7441 -132.094 -133.173c-0.128906 -21.6475 4.74023 -42.3213 14.4697 -61.4531zM350.834 0.109375l58.5742 -26.0811l-50.9355 107.744l-32.2607 14.3604l-37.668 -63.1328
c-6.9043 -11.5713 -19.0723 -18.4805 -32.5469 -18.4805s-25.6436 6.90918 -32.5469 18.4814l-37.668 63.1328l-32.2578 -14.3555l-50.9385 -107.749l58.5781 26.0801c3.27051 1.45508 7.00586 1.45508 10.2773 0l84.5576 -37.6465l84.5576 37.6465
c3.27148 1.45508 7.00684 1.45508 10.2773 0zM256.004 346.393c31.793 0 57.6582 -25.8643 57.6582 -57.6572s-25.8652 -57.6592 -57.6582 -57.6582c-31.7939 0 -57.6592 25.8652 -57.6592 57.6582s25.8652 57.6572 57.6592 57.6572zM256.004 256.343
c17.8613 0 32.3926 14.5312 32.3926 32.3926c0 17.8604 -14.5312 32.3916 -32.3926 32.3916c-17.8623 0 -32.3926 -14.5312 -32.3926 -32.3916c0 -17.8633 14.5312 -32.3936 32.3926 -32.3926z" />
    <glyph glyph-name="037-smartphone-with-email" unicode="&#xf124;" 
d="M493.913 294.896v0l3.09961 0.0126953l-6.71387 -17.9492l-75.4873 -201.447l-1.00781 -2.75586h-18.5635h-82.833v-102.173c0 -19.0273 -15.5576 -34.584 -34.5713 -34.584h-228.271c-19.0264 0 -34.5771 15.5566 -34.5771 34.584v442.832
c0 19.0332 15.5439 34.584 34.5771 34.584h228.271c19.0205 0 34.5713 -15.5449 34.5713 -34.584v-118.52h181.506zM194.983 264.465l-63.5244 -169.537l123.98 103.106zM207.998 278.832l91.8516 -100.87l167.434 100.87h-259.285zM127.175 423.062
c-2.30469 0 -4.1709 -1.87305 -4.1709 -4.18457c0 -2.29199 1.86621 -4.17676 4.1709 -4.17676h73.0322c2.30469 0 4.19629 1.88477 4.19629 4.17676c0 2.31152 -1.8916 4.18457 -4.19629 4.18457h-73.0322zM163.688 -46.7334c9.55078 0 17.3105 7.73535 17.3105 17.3047
c0 9.56348 -7.75977 17.2861 -17.3105 17.2861s-17.292 -7.75977 -17.292 -17.2861c0 -9.57617 7.75977 -17.3047 17.292 -17.3047zM288.332 -0.0302734v0l0.03125 72.7998h-162.754h-18.5381l1.0459 2.7998l38.0469 101.516h-32.0664v16.1582h38.123l7.49023 19.9854
h-57.9883v19.8906h65.4414l8.85547 23.624h-110.547v26.5293h120.479l4.35938 11.6113h3.06836h94.9521v98.2598h-249.295v-393.174h249.295zM144.918 88.79h243.045l-45.0371 99.3867l-50.6914 -30.5566l-27.8135 30.5566zM406.025 94.9219l63.5244 169.55
l-110.259 -66.4307z" />
    <glyph glyph-name="009-minus" unicode="&#xf108;" 
d="M0 176.165v31.6699h512v-31.6699h-512z" />
    <glyph glyph-name="004-clock" unicode="&#xf103;" 
d="M256 448c140.8 0 256 -115.2 256 -256s-115.2 -256 -256 -256s-256 115.2 -256 256s115.2 256 256 256zM256 -12.7998c112.64 0 204.8 92.1602 204.8 204.8s-92.1602 204.8 -204.8 204.8s-204.8 -92.1602 -204.8 -204.8s92.1602 -204.8 204.8 -204.8zM268.8 320v-133.12
l115.2 -69.1201l-20.4805 -33.2793l-133.119 81.9199v153.6h38.3994z" />
    <glyph glyph-name="028-linkedin" unicode="&#xf11b;" 
d="M151 267c8.28516 0 15 -6.71484 15 -15v-240c0 -8.28516 -6.71484 -15 -15 -15h-60c-8.28516 0 -15 6.71484 -15 15v240c0 8.28516 6.71484 15 15 15h60zM136 27v210h-30v-210h30zM136 27zM121 387c24.8125 0 45 -20.1875 45 -45s-20.1875 -45 -45 -45
s-45 20.1875 -45 45s20.1875 45 45 45zM121 327c8.26953 0 15 6.73047 15 15s-6.73047 15 -15 15s-15 -6.73047 -15 -15s6.73047 -15 15 -15zM121 327zM355.641 266.074c48.6992 -7.90234 80.3594 -47.8164 80.3594 -92.6133v-161.461c0 -8.28516 -6.71484 -15 -15 -15h-60
c-8.28516 0 -15 6.71484 -15 15v135c0 16.543 -13.457 30 -30 30s-30 -13.457 -30 -30v-135c0 -8.28516 -6.71484 -15 -15 -15h-60c-8.28516 0 -15 6.71484 -15 15v240c0 8.28516 6.71484 15 15 15h60c7.69531 0 14.0391 -5.79688 14.9023 -13.2656
c20.1445 11.6523 45.2305 16.3164 69.7383 12.3398zM406 27v146.461c0 29.0547 -19.8555 57.2695 -55.1641 63c-23.0781 3.74609 -47.5078 -3.34766 -62.2344 -18.0703l-6.99609 -6.99609c-4.28906 -4.28906 -10.7422 -5.57422 -16.3438 -3.25391
c-5.60547 2.32422 -9.26172 7.79297 -9.26172 13.8594v15h-30v-210h30v120c0 33.0859 26.9141 60 60 60s60 -26.9141 60 -60v-120h30zM406 27zM436 448c41.457 0 76 -34.5156 76 -76v-360c0 -41.457 -34.5156 -76 -76 -76h-360c-41.457 0 -76 34.5156 -76 76v360
c0 41.457 34.5156 76 76 76h360zM482 12v360c0 24.9336 -21.0664 46 -46 46h-360c-24.9336 0 -46 -21.0664 -46 -46v-360c0 -24.9336 21.0664 -46 46 -46h360c24.9336 0 46 21.0664 46 46zM482 12z" />
    <glyph glyph-name="055-headphones" unicode="&#xf135;" 
d="M431.166 253.311c36.6797 -2.36621 65.7217 -33.0215 65.6143 -70.2383v-30.7627c0 -37.4326 -29.2578 -68.0879 -66.1514 -70.3467c-3.65723 -56.1475 -31.3008 -84.0068 -54.6426 -97.667c-16.5645 -9.68066 -33.2363 -13.4453 -43.7783 -14.9512
c-5.27051 -19.1465 -22.8027 -33.3447 -43.6699 -33.3447h-32.377c-24.9541 0 -45.2842 20.4365 -45.2842 45.3916s20.3301 45.2842 45.2842 45.2842h32.2695c20.1143 0 37.2168 -13.123 43.1328 -31.3008c21.5117 3.5498 67.8721 19.1465 73.1426 86.4805h-18.0703
c-7.09961 0 -12.9082 5.80859 -12.9082 12.9072v145.855c0 7.09961 5.80859 12.9082 12.9082 12.9082h18.5v19.4688c0 85.082 -60.5576 149.189 -141.015 149.189h-16.2422c-80.3496 0 -141.015 -64.1074 -141.015 -149.189v-19.4688h18.5
c7.09961 0 12.9082 -5.80859 12.9082 -12.9082v-145.963c0 -7.09863 -5.80859 -12.9072 -12.9082 -12.9072h-39.6904c-38.8301 0 -70.4541 31.623 -70.4541 70.4541v30.7627c0 37.3242 29.1504 67.8721 65.8291 70.3457v19.6846c0 47.1123 16.6719 90.8906 46.8975 123.375
c30.9785 33.3438 73.5732 51.6299 120.04 51.6299h16.2422c46.4668 0 89.0625 -18.2861 120.04 -51.6299c30.2256 -32.4844 46.8975 -76.2627 46.8975 -123.375v-19.6846zM112.672 107.671v120.04h-26.7832c-24.6318 0 -44.6387 -20.0068 -44.6387 -44.6387v-30.7627
c0 -24.6318 20.0068 -44.6387 44.6387 -44.6387h26.7832zM288.538 -38.1846c10.7559 0 19.4688 8.71191 19.4688 19.4688c0 10.7559 -8.71289 19.4688 -19.4688 19.4688h-32.377c-10.7559 0 -19.4688 -8.71289 -19.4688 -19.4688
c0 -10.7568 8.71289 -19.4688 19.4688 -19.4688h32.377zM471.072 152.31v30.7627c0 24.6318 -20.0068 44.6387 -44.6387 44.6387h-26.7832v-120.04h26.7832c24.6318 0 44.6387 20.0068 44.6387 44.6387z" />
    <glyph glyph-name="051-quotation-marks" unicode="&#xf131;" 
d="M109.751 212.073v-38.4111h128.049v-201.124h-237.8v201.124c0 151.771 36.6162 237.82 164.606 237.82v-122.568c-54.8555 0 -54.8555 -10.9824 -54.8555 -76.8408zM384.049 173.662h127.951v-201.124h-237.682v201.124c0 151.771 36.5967 237.82 164.587 237.82
v-122.568c-54.8564 0 -54.8564 -10.9824 -54.8564 -76.8408v-38.4111z" />
    <glyph glyph-name="043-supermarket" unicode="&#xf129;" 
d="M512.497 276v-80c0 -11.0469 -8.95312 -20 -20 -20h-13.1523l-8.42578 -74.9893c-1.14844 -10.2188 -9.80469 -17.7656 -19.8516 -17.7695c-0.746094 0 -1.49609 0.0429688 -2.25781 0.128906c-10.9766 1.23047 -18.875 11.1328 -17.6406 22.1055l10.4219 92.7549
c1.13672 10.1172 9.69141 17.7695 19.875 17.7695h11.0352v40h-432.001v-40h341.001c11.0469 0 20 -8.95703 20 -20c0 -11.0469 -8.95312 -20 -20 -20h-307.228l19.75 -164.763c2.40625 -20.0898 19.4805 -35.2383 39.7148 -35.2383h247.126
c20.3828 0 37.4727 15.2773 39.75 35.5352c1.23047 10.9766 11.1289 18.8711 22.1055 17.6406c10.9766 -1.23438 18.875 -11.1328 17.6445 -22.1094c-4.55469 -40.5117 -38.7305 -71.0664 -79.5 -71.0664h-247.126c-40.4688 0 -74.6172 30.3008 -79.4336 70.4805
l-20.3164 169.521h-13.4883c-11.0469 0 -20 8.95312 -20 20v80c0 11.0469 8.95312 20 20 20h70.9375l105.684 143.84c6.53906 8.89844 19.0547 10.8164 27.957 4.27344c8.90234 -6.53906 10.8164 -19.0547 4.27734 -27.957l-88.2812 -120.156h231.591l-88.2861 120.156
c-6.53906 8.90234 -4.625 21.418 4.27832 27.957c8.90234 6.54297 21.418 4.62891 27.9609 -4.27344l105.68 -143.84h70.1992c11.0469 0 20 -8.95703 20 -20zM236.5 115.999c0 11.0469 8.95312 20 20 20c11.043 0 20 -8.95312 20 -20v-80c0 -11.0469 -8.95703 -20 -20 -20
c-11.0469 0 -20 8.95312 -20 20v80zM316.501 115.999c0 11.0469 8.95312 20 20 20c11.043 0 20 -8.95312 20 -20v-80c0 -11.0469 -8.95703 -20 -20 -20c-11.0469 0 -20 8.95312 -20 20v80zM156.5 115.999c0 11.0469 8.95312 20 20 20c11.043 0 20 -8.95312 20 -20v-80
c0 -11.0469 -8.95703 -20 -20 -20c-11.0469 0 -20 8.95312 -20 20v80zM156.5 115.999z" />
    <glyph glyph-name="021-menu" unicode="&#xf114;" 
d="M331.047 -64h-331.047v512h331.051v-512h-0.00390625zM30 -34h271.051v452h-271.051v-452zM30 -34zM100.066 327.902h130.914v-30h-130.914v30zM100.066 327.902zM100.066 387.953h130.914v-30h-130.914v30zM100.066 387.953zM60.0352 56.8789h140.922v-30h-140.922v30z
M60.0352 56.8789zM60.0352 116.93h140.922v-30h-140.922v30zM60.0352 116.93zM60.0352 176.977h140.922v-30h-140.922v30zM60.0352 176.977zM60.0352 237.023h140.922v-30h-140.922v30zM60.0352 237.023zM230.98 237.023h40.0312v-30h-40.0312v30zM230.98 237.023z
M230.98 176.977h40.0312v-30h-40.0312v30zM230.98 176.977zM230.98 116.93h40.0312v-30h-40.0312v30zM230.98 116.93zM230.98 56.8789h40.0312v-30h-40.0312v30zM230.98 56.8789z" />
    <glyph glyph-name="058-open-envelope-with-letter" unicode="&#xf138;" 
d="M21.0146 -54.542h0.00195312v267.561v0v0.00195312v0.015625c0.000976562 0.101562 0.0117188 0.201172 0.015625 0.302734c0.00683594 0.196289 0.0078125 0.393555 0.0273438 0.589844c0.000976562 0.00488281 0.00292969 0.0126953 0.00292969 0.0195312
c0 0.000976562 0.00195312 0.00292969 0.00195312 0.00683594c0.0136719 0.140625 0.0400391 0.280273 0.0605469 0.420898c0.0224609 0.151367 0.0361328 0.302734 0.0654297 0.452148c0.00292969 0.0126953 0.00683594 0.0263672 0.00976562 0.0400391
c0.03125 0.158203 0.0742188 0.311523 0.113281 0.467773c0.0107422 0.0380859 0.0214844 0.0771484 0.03125 0.117188c0.0244141 0.104492 0.0478516 0.209961 0.0791016 0.313477c0.046875 0.152344 0.105469 0.300781 0.158203 0.452148
c0.0517578 0.140625 0.0986328 0.282227 0.155273 0.420898c0.0566406 0.139648 0.125 0.273438 0.19043 0.411133c0.0263672 0.0537109 0.0517578 0.108398 0.078125 0.162109c0.0410156 0.0898438 0.0820312 0.176758 0.128906 0.264648
c0.0683594 0.130859 0.147461 0.25293 0.223633 0.380859c0.0820312 0.136719 0.160156 0.27832 0.250977 0.414062c0.0908203 0.137695 0.196289 0.270508 0.297852 0.404297c0.0839844 0.112305 0.161133 0.228516 0.25293 0.336914
c0.195312 0.237305 0.402344 0.469727 0.625977 0.693359v0v0.00195312l0.00195312 0.00195312l59.5996 59.5879v26.9746c0 5.22266 4.2334 9.45801 9.45801 9.45801h26.9678l129.497 129.497c3.69336 3.69336 9.68164 3.69336 13.375 0l129.51 -129.497h26.9521
c5.22266 0 9.45801 -4.23535 9.45801 -9.45801v-26.9512l59.6016 -59.6104c0.00195312 -0.000976562 0.00390625 -0.00292969 0.00488281 -0.00292969v-0.00195312v0c0.0947266 -0.0947266 0.177734 -0.192383 0.263672 -0.291016
c0.120117 -0.131836 0.248047 -0.260742 0.363281 -0.400391c0.00683594 -0.00878906 0.015625 -0.0175781 0.0224609 -0.0253906c0.0839844 -0.103516 0.154297 -0.211914 0.231445 -0.316406c0.0488281 -0.0654297 0.0966797 -0.134766 0.146484 -0.200195
c0.0478516 -0.0673828 0.101562 -0.131836 0.148438 -0.201172c0.00976562 -0.015625 0.0234375 -0.03125 0.0341797 -0.0478516c0.0810547 -0.121094 0.146484 -0.248047 0.219727 -0.37207c0.0742188 -0.124023 0.151367 -0.246094 0.220703 -0.373047
c0.00976562 -0.0224609 0.0234375 -0.0400391 0.0361328 -0.0615234c0.0410156 -0.078125 0.0722656 -0.162109 0.111328 -0.241211c0.0224609 -0.0449219 0.0419922 -0.0908203 0.0634766 -0.135742c0.0625 -0.132812 0.129883 -0.264648 0.186523 -0.399414
c0.00878906 -0.0224609 0.0205078 -0.0410156 0.0292969 -0.0615234c0.0478516 -0.12207 0.0859375 -0.25 0.128906 -0.374023c0.0205078 -0.0566406 0.0390625 -0.109375 0.0585938 -0.166016c0.0302734 -0.0917969 0.0664062 -0.180664 0.0957031 -0.272461
c0.00585938 -0.0166016 0.0136719 -0.0361328 0.0195312 -0.0527344c0.0371094 -0.130859 0.0634766 -0.263672 0.0957031 -0.392578c0.0361328 -0.151367 0.0791016 -0.300781 0.110352 -0.452148c0.00488281 -0.0332031 0.00878906 -0.0634766 0.0136719 -0.0986328
c0.0244141 -0.140625 0.0449219 -0.282227 0.0654297 -0.422852c0.015625 -0.113281 0.0361328 -0.228516 0.0478516 -0.342773c0.00195312 -0.0166016 0.00585938 -0.0341797 0.00683594 -0.0507812c0 -0.00878906 0.00195312 -0.0195312 0.00390625 -0.0292969
c0.0273438 -0.286133 0.0390625 -0.575195 0.0410156 -0.864258c0 -0.0117188 0.00195312 -0.0273438 0.00195312 -0.0429688v-0.000976562v-0.00195312v-267.548v-0.00488281c0 -0.316406 -0.0175781 -0.62793 -0.0478516 -0.935547
c-0.0136719 -0.132812 -0.0380859 -0.259766 -0.0566406 -0.390625c-0.0244141 -0.175781 -0.0449219 -0.352539 -0.0791016 -0.524414c-0.03125 -0.15332 -0.0742188 -0.302734 -0.110352 -0.454102c-0.0380859 -0.148438 -0.0703125 -0.299805 -0.115234 -0.445312
c-0.0449219 -0.146484 -0.101562 -0.291016 -0.15332 -0.4375s-0.0996094 -0.293945 -0.160156 -0.435547c-0.0546875 -0.135742 -0.12207 -0.266602 -0.183594 -0.398438c-0.0712891 -0.148438 -0.135742 -0.295898 -0.213867 -0.44043
c-0.0664062 -0.124023 -0.144531 -0.246094 -0.217773 -0.370117c-0.0849609 -0.140625 -0.166016 -0.285156 -0.256836 -0.422852c-0.0898438 -0.135742 -0.19043 -0.263672 -0.289062 -0.394531c-0.0859375 -0.115234 -0.167969 -0.237305 -0.261719 -0.348633
c-0.188477 -0.230469 -0.389648 -0.454102 -0.603516 -0.669922c-0.00878906 -0.00683594 -0.015625 -0.0166016 -0.0224609 -0.0234375c-0.00488281 -0.00488281 -0.00976562 -0.0107422 -0.015625 -0.015625c-0.217773 -0.216797 -0.445312 -0.419922 -0.677734 -0.610352
c-0.109375 -0.0878906 -0.226562 -0.168945 -0.34082 -0.25293c-0.133789 -0.101562 -0.264648 -0.205078 -0.402344 -0.295898c-0.133789 -0.0898438 -0.276367 -0.170898 -0.416016 -0.25293c-0.125977 -0.0761719 -0.249023 -0.155273 -0.376953 -0.223633
c-0.140625 -0.0761719 -0.287109 -0.139648 -0.431641 -0.208008c-0.133789 -0.0644531 -0.268555 -0.130859 -0.40625 -0.1875c-0.138672 -0.0576172 -0.285156 -0.105469 -0.425781 -0.157227c-0.150391 -0.0546875 -0.297852 -0.111328 -0.447266 -0.15625
c-0.143555 -0.0449219 -0.288086 -0.0742188 -0.432617 -0.111328c-0.154297 -0.0400391 -0.30957 -0.0830078 -0.46582 -0.114258c-0.165039 -0.0322266 -0.333984 -0.0517578 -0.501953 -0.0771484c-0.137695 -0.0185547 -0.273438 -0.0449219 -0.413086 -0.0585938
c-0.306641 -0.0292969 -0.618164 -0.0458984 -0.932617 -0.0458984h-451.057c-0.314453 0 -0.624023 0.0146484 -0.932617 0.0458984c-0.137695 0.0136719 -0.273438 0.0400391 -0.40918 0.0585938c-0.169922 0.0244141 -0.338867 0.0429688 -0.505859 0.0771484
c-0.15332 0.0292969 -0.305664 0.0742188 -0.458984 0.112305c-0.146484 0.0371094 -0.293945 0.0703125 -0.4375 0.113281c-0.147461 0.0449219 -0.293945 0.103516 -0.44043 0.155273c-0.144531 0.0527344 -0.290039 0.0996094 -0.431641 0.158203
c-0.135742 0.0566406 -0.266602 0.123047 -0.400391 0.185547c-0.146484 0.0683594 -0.295898 0.133789 -0.438477 0.209961c-0.125977 0.0683594 -0.248047 0.145508 -0.37207 0.219727c-0.140625 0.0830078 -0.285156 0.164062 -0.420898 0.256836
c-0.136719 0.0908203 -0.265625 0.192383 -0.397461 0.291992c-0.115234 0.0859375 -0.236328 0.166992 -0.345703 0.257812c-0.237305 0.196289 -0.469727 0.404297 -0.692383 0.626953v0c-0.000976562 0 -0.000976562 0.000976562 -0.00292969 0.00292969
c-0.22168 0.220703 -0.428711 0.451172 -0.623047 0.688477c-0.0888672 0.108398 -0.167969 0.224609 -0.250977 0.334961c-0.101562 0.135742 -0.206055 0.268555 -0.298828 0.408203c-0.0898438 0.131836 -0.166992 0.273438 -0.25 0.411133
c-0.0751953 0.126953 -0.15625 0.25293 -0.225586 0.381836c-0.0732422 0.138672 -0.138672 0.285156 -0.206055 0.427734c-0.0654297 0.137695 -0.132812 0.272461 -0.191406 0.410156c-0.0566406 0.138672 -0.102539 0.282227 -0.154297 0.422852
c-0.0517578 0.151367 -0.110352 0.299805 -0.15625 0.451172c-0.0419922 0.140625 -0.0742188 0.285156 -0.110352 0.427734c-0.0380859 0.155273 -0.0830078 0.311523 -0.113281 0.469727c-0.0332031 0.162109 -0.0517578 0.327148 -0.0761719 0.492188
c-0.0205078 0.140625 -0.0458984 0.282227 -0.0605469 0.422852c-0.0283203 0.299805 -0.0458984 0.600586 -0.0458984 0.908203v0.0244141zM86.1523 143.965l-46.2217 46.2227v-221.896l110.951 110.945l-64.7178 64.7158zM53.3057 -45.0859h405.391l-110.946 110.946
l-85.0557 -85.0615c-1.77344 -1.77344 -4.18066 -2.76953 -6.68848 -2.76953s-4.91504 0.996094 -6.68848 2.76953l-85.0605 85.0615zM472.069 190.186l-110.944 -110.949l110.944 -110.945v221.895zM468.152 213.021l-39.5449 39.5488v-79.0957zM255.999 425.167
l-109.436 -109.436h218.882zM102.304 296.815v-142.251l153.7 -153.702l153.688 153.695v120.172c-0.0361328 0.47168 -0.0361328 0.946289 0 1.41699v20.6689h-285.961h-21.4268zM83.3877 252.552l-39.54 -39.5332l39.54 -39.5381v79.0713zM174.616 237.177
c-5.22266 0 -9.45801 4.2334 -9.45801 9.45605s4.23535 9.45801 9.45801 9.45801h162.765c5.22266 0 9.45801 -4.23535 9.45801 -9.45801s-4.23535 -9.45605 -9.45801 -9.45605h-162.765zM133.906 189.806c-5.22461 0 -9.45801 4.23535 -9.45801 9.45801
c0 5.22461 4.2334 9.45801 9.45801 9.45801h244.181c5.22266 0 9.45801 -4.2334 9.45801 -9.45801c0 -5.22266 -4.23535 -9.45801 -9.45801 -9.45801h-244.181zM387.545 151.903c0 -5.22461 -4.23535 -9.45801 -9.45801 -9.45801h-244.181
c-5.22461 0 -9.45801 4.2334 -9.45801 9.45801c0 5.22266 4.2334 9.45801 9.45801 9.45801h244.181c5.22266 0 9.45801 -4.23535 9.45801 -9.45801zM340.952 104.54c0 -5.22656 -4.2334 -9.45801 -9.45801 -9.45801h-150.986c-5.22461 0 -9.45801 4.2334 -9.45801 9.45801
c0 5.22266 4.2334 9.45801 9.45801 9.45801h150.986c5.22461 0 9.45801 -4.23535 9.45801 -9.45801z" />
    <glyph glyph-name="059-smartphone" unicode="&#xf139;" 
d="M363.478 448c20.7188 0 37.5889 -16.8701 37.5889 -37.5889v-436.822c0 -20.7188 -16.8701 -37.5889 -37.5977 -37.5889h-214.946c-20.7188 0 -37.5889 16.8701 -37.5889 37.5977v436.813c0 20.7188 16.8701 37.5889 37.5889 37.5889h214.955zM128 379.733v-324.267h256
v324.267h-256zM148.522 430.934c-11.3154 0 -20.5225 -9.20801 -20.5225 -20.5225v-13.6113h256v13.6113c0 11.3145 -9.20703 20.5225 -20.5312 20.5225h-214.946zM363.478 -46.9336c11.3154 0 20.5225 9.20801 20.5225 20.5225v64.8115h-256v-64.8115
c0 -11.3145 9.20703 -20.5225 20.5225 -20.5225h214.955zM256 29.8662c18.8242 0 34.1338 -15.3086 34.1338 -34.1328s-15.3096 -34.1338 -34.1338 -34.1338s-34.1338 15.3096 -34.1338 34.1338s15.3096 34.1328 34.1338 34.1328zM256 -21.333
c9.41211 0 17.0664 7.6543 17.0664 17.0664s-7.6543 17.0664 -17.0664 17.0664s-17.0664 -7.6543 -17.0664 -17.0664s7.6543 -17.0664 17.0664 -17.0664zM221.866 405.333c-4.71875 0 -8.5332 3.81445 -8.5332 8.5332c0 4.71973 3.81445 8.53418 8.5332 8.53418h34.1338
c4.71875 0 8.5332 -3.81445 8.5332 -8.53418c0 -4.71875 -3.81445 -8.5332 -8.5332 -8.5332h-34.1338zM281.6 405.333c-4.71875 0 -8.5332 3.81445 -8.5332 8.5332c0 4.71973 3.81445 8.53418 8.5332 8.53418h8.53418c4.71875 0 8.5332 -3.81445 8.5332 -8.53418
c0 -4.71875 -3.81445 -8.5332 -8.5332 -8.5332h-8.53418zM483.089 409.011c38.5371 -38.5361 38.5371 -101.247 0 -139.775c-1.66406 -1.66406 -3.84863 -2.5 -6.0332 -2.5s-4.36914 0.835938 -6.0332 2.5c-3.33594 3.33594 -3.33594 8.72949 0 12.0664
c31.8809 31.8887 31.8809 83.7627 0 115.644c-3.33594 3.33594 -3.33594 8.72949 0 12.0654c3.33691 3.33691 8.73047 3.33691 12.0664 0zM447.155 389.589c13.79 -13.7725 21.3672 -32.1279 21.3672 -51.6514c0 -19.5244 -7.58594 -37.8711 -21.3672 -51.6445
c-1.66406 -1.66406 -3.84863 -2.5 -6.0332 -2.5s-4.36914 0.835938 -6.0332 2.5c-3.33594 3.33691 -3.33594 8.72949 0 12.0664c10.5557 10.5557 16.3672 24.6104 16.3672 39.5781c0 14.9668 -5.81152 29.0303 -16.3672 39.5859
c-3.33594 3.33594 -3.33594 8.72949 0 12.0654c3.33691 3.33691 8.72949 3.33691 12.0664 0zM40.9775 396.945c-31.8896 -31.8896 -31.8896 -83.7637 0 -115.644c3.33594 -3.33691 3.33594 -8.73047 0 -12.0664c-1.66406 -1.66406 -3.84863 -2.5 -6.0332 -2.5
s-4.36914 0.835938 -6.0332 2.5c-38.5371 38.5361 -38.5371 101.239 0 139.775c3.33594 3.33691 8.72949 3.33691 12.0664 0c3.33594 -3.33594 3.33594 -8.72949 0 -12.0654zM76.9111 391.944c3.32812 -3.33594 3.32812 -8.73828 0 -12.0664
c-10.5645 -10.5557 -16.3672 -24.6094 -16.3672 -39.5771s5.81152 -29.0303 16.3672 -39.5859c3.33594 -3.33691 3.33594 -8.72949 0 -12.0664c-1.66406 -1.66406 -3.84863 -2.5 -6.0332 -2.5s-4.36914 0.835938 -6.0332 2.5
c-13.7812 13.7812 -21.3672 32.1279 -21.3672 51.6523s7.58594 37.8711 21.3672 51.6436c3.33691 3.33691 8.72949 3.33691 12.0664 0z" />
    <glyph glyph-name="033-real-estate" unicode="&#xf120;" 
d="M294.485 433.161l212.376 -200.006c3.26855 -3.07617 4.33008 -7.83887 2.67383 -12.0146c-1.65625 -4.17188 -5.69043 -6.91406 -10.1836 -6.91406h-47.8447v-223.458c-0.0341797 -30.2334 -24.5342 -54.7344 -54.7686 -54.7686h-285.452
c-30.2334 0.0341797 -54.7334 24.5352 -54.7686 54.7686v223.462h-45.3291c-4.50488 0 -8.55273 2.75977 -10.2002 6.95703c-1.64258 4.19336 -0.551758 8.96875 2.75098 12.0322l215.962 200.232c21.1543 19.5068 53.7793 19.3828 74.7842 -0.291016zM314.163 -42.0967
h-0.00390625v91.1631c-0.0214844 18.1416 -14.7236 32.8398 -32.8613 32.8604h-52.0557c-18.1416 -0.0205078 -32.8389 -14.7188 -32.8604 -32.8604v-91.1631h117.781zM429.604 -9.23633l-0.00390625 223.467h-351.175v-223.467
c0.0214844 -18.1367 14.7236 -32.8389 32.8613 -32.8604h63.1885v91.1631c0.0341797 30.2334 24.5342 54.7334 54.7676 54.7676h52.0557c30.2334 -0.0341797 54.7334 -24.5342 54.7686 -54.7676v-91.1631h60.6768c18.1416 0.0214844 32.8389 14.7236 32.8604 32.8604z
M39.1074 236.134h432.642l-192.287 181.076c-12.6006 11.8057 -32.1758 11.8818 -44.8711 0.175781zM39.1074 236.134z" />
    <glyph glyph-name="046-right-arrow" unicode="&#xf12c;" 
d="M344.774 366.591l161.812 -161.827c7.21875 -6.95898 7.21875 -18.5684 0 -25.543l-161.812 -161.812c-6.95801 -7.21875 -18.584 -7.21875 -25.8027 0c-6.97559 6.95898 -6.97559 18.584 0 25.8037l130.837 130.593h-431.745
c-10.0645 0 -18.0635 8.25977 -18.0635 18.3242s7.99902 18.0645 18.0635 18.0801h431.745l-130.837 130.838c-6.97559 6.95898 -6.97559 18.5674 0 25.543c7.21875 7.21875 18.8281 7.21875 25.8027 0z" />
    <glyph glyph-name="044-edit" unicode="&#xf12a;" 
d="M379.501 282.884l42.7949 -42.832c2.19336 -2.19434 3.41992 -5.16309 3.40918 -8.25684c-0.0107422 -3.10449 -1.25 -6.07324 -3.44238 -8.24512l-239.522 -237.587c-0.144531 -0.142578 -0.342773 -0.191406 -0.493164 -0.324219
c-0.560547 -0.506836 -1.22363 -0.856445 -1.88672 -1.25098c-0.675781 -0.398438 -1.31836 -0.811523 -2.05273 -1.06445c-0.208008 -0.0732422 -0.354492 -0.233398 -0.566406 -0.293945l-70.6934 -20.2227l-92.2148 -26.3623
c-1.05664 -0.295898 -2.125 -0.444336 -3.19336 -0.444336c-3.0459 0 -6.01172 1.19434 -8.22754 3.41211c-2.98926 2.99121 -4.12598 7.37012 -2.96582 11.4307l26.3398 92.2949l20.2041 70.7529c0.521484 1.80957 1.51855 3.2998 2.71387 4.58984
c0.109375 0.119141 0.104492 0.296875 0.21875 0.414062l237.385 239.726c2.16992 2.19531 5.13574 3.43555 8.23828 3.44629h0.0234375c3.0918 0 6.0459 -1.22852 8.22754 -3.41211l42.7949 -42.832c2.18164 -2.18457 3.40918 -5.14062 3.40918 -8.23438
s-1.22754 -6.05078 -3.40918 -8.23438l-221.329 -221.515c-2.19336 -2.20703 -5.1709 -3.41211 -8.22754 -3.41211c-0.613281 0 -1.23828 0.0449219 -1.86328 0.147461c-3.69238 0.602539 -6.875 2.94531 -8.54492 6.28906l-9.09082 18.1855h-30.5723l-15.916 -55.7178
l56.1924 -56.2412l55.6699 15.9297v30.5986l-18.1699 9.09863c-3.34082 1.67188 -5.68164 4.85645 -6.28418 8.55273c-0.589844 3.69531 0.614258 7.44922 3.26172 10.0996l221.329 221.515c4.36328 4.36719 12.0908 4.36719 16.4541 0zM498.363 364.908
c8.7959 -8.80273 13.6357 -20.4971 13.6357 -32.9385c0 -12.4424 -4.84082 -24.1348 -13.6367 -32.9365l-43.0449 -42.6953c-2.27148 -2.25098 -5.22656 -3.37695 -8.19238 -3.37695c-2.97656 0 -5.95508 1.1377 -8.22754 3.41211l-118.795 118.896
c-4.53418 4.53809 -4.54492 11.873 -0.0341797 16.4346l42.625 43.0479c17.6602 17.6738 48.2617 17.6396 65.8525 0.0341797z" />
    <glyph glyph-name="013-play-button" unicode="&#xf10c;" 
d="M60.6426 -64c-21.4229 0 -31.0098 18.3584 -31.0098 36.5508v438.898c-0.00195312 18.1924 9.58594 36.5508 31.0068 36.5508c6.93457 0 14.125 -2.12305 21.377 -6.31055l380.1 -219.442c12.8711 -7.43359 20.251 -18.4561 20.251 -30.2451
s-7.37988 -22.8125 -20.25 -30.2441l-380.103 -219.451c-7.25 -4.18359 -14.4404 -6.30664 -21.3721 -6.30664zM60.6396 425.172c-7.11816 0 -8.18066 -8.59668 -8.18066 -13.7227v-438.898c0 -5.125 1.0625 -13.7227 8.18164 -13.7227
c1.97461 0 5.30762 0.564453 9.95996 3.25l380.102 219.448c5.53418 3.19434 8.83789 7.11133 8.83789 10.4756c0 3.36328 -3.30371 7.28027 -8.83984 10.4766l-380.1 219.442c-4.65234 2.68652 -7.98535 3.25098 -9.96094 3.25098z" />
    <glyph glyph-name="045-trash" unicode="&#xf12b;" 
d="M341.333 362.667h149.334v-42.667h-469.334v42.667h149.334v21.333c0.0390625 35.2881 28.7109 63.96 64 64h42.666c35.2891 -0.0400391 63.9609 -28.7119 64 -64v-21.333zM213.333 384v-21.333h85.334v21.333c-0.0136719 11.7627 -9.57129 21.3203 -21.334 21.333
h-42.666c-11.7627 -0.0126953 -21.3203 -9.57031 -21.334 -21.333zM81.2451 -7.06934l-33.9707 305.736h417.451l-33.9707 -305.733c-3.46289 -31.4277 -31.9346 -56.9336 -63.5518 -56.9336h-0.0595703h-222.287h-0.0595703c-31.6162 0 -60.0879 25.5049 -63.5518 56.9307z
M341.408 257.773l-21.334 -256l42.5176 -3.54688l21.334 256zM234.667 256v-256h42.666v256h-42.666zM170.592 257.773l-42.5176 -3.54688l21.334 -256l42.5176 3.54688z" />
    <glyph glyph-name="038-pdf" unicode="&#xf125;" 
d="M444.875 338.208c2 -2 3.125 -4.70801 3.125 -7.54102v-352c0 -23.5322 -19.1348 -42.667 -42.666 -42.667h-298.667c-23.5322 0 -42.667 19.1348 -42.667 42.666v426.667c0 23.5322 19.1348 42.667 42.666 42.667h224c2.83398 0 5.54199 -1.125 7.54199 -3.125z
M341.333 411.583v-48.917c0 -11.7598 9.57324 -21.333 21.333 -21.333h48.917zM426.667 -21.333v341.333h-64c-23.5322 0 -42.667 19.1348 -42.667 42.666v64h-213.333c-11.7598 0 -21.333 -9.57324 -21.333 -21.333v-426.666c0 -11.7598 9.57324 -21.333 21.333 -21.333
h298.667c11.7598 0 21.333 9.57324 21.333 21.333zM310.385 134.865c15.1055 2.53125 26.6465 3.80176 30.9482 3.80273c13.8535 0 42.667 0 42.667 -25.2188c0 -12.8232 -5.55176 -28.1152 -32 -28.1152c-9.55176 0 -29.2715 13.1357 -47.125 26.8652
c-22.2812 -4.15625 -50.5107 -10.792 -73.2188 -19.75c-21.875 -44.625 -51.8232 -71.1152 -71.6562 -71.1152c-15.3848 0 -32 9.46777 -32 24.7598c0 21.0625 22.5 31.7295 56.5635 47.8545c7.46875 3.54199 15.5205 7.35352 24 11.5938
c2.35352 1.17676 4.79199 2.31152 7.30176 3.42676c3.08398 6.89648 6 14.3545 8.6875 22.4062c5.58301 16.7812 10.5527 31.667 14.7812 44.5732c-17.2812 22.458 -26 41.7803 -26 57.6982c0 36.1045 17.4062 43.6875 32 43.6875c19.208 0 32 -7.26074 32 -42.667
c0 -8.33398 -4.30176 -23.9688 -14.1152 -54.292c6.29102 -7.5 13.5312 -15.375 21.6562 -23.5c6.25 -6.25 15.6348 -14.2393 25.5098 -22.0098zM160 42.667c6.05176 0 21.8965 10.7695 37.917 34c-1.42676 -0.676758 -2.83398 -1.33398 -4.21875 -1.99023
c-21.8135 -10.333 -44.3652 -21.0195 -44.3652 -28.583c0.448242 -0.551758 4.57324 -3.42676 10.667 -3.42676zM234.667 233.646c0 -8.34473 4.46777 -19.3965 12.8438 -32.293c5.49023 17.5635 8.49023 28.8135 8.49023 33.3135c0 21.333 -3.125 21.333 -10.667 21.333
c-3.72852 0 -10.667 0 -10.667 -22.3535zM242.844 119c13.375 4.24023 27.3643 7.79199 40.5127 10.6572c-6.60547 5.63477 -11.5635 10.1348 -13.5635 12.1348c-5.11523 5.11426 -9.88574 10.1045 -14.3125 14.9795c-3.17773 -9.60449 -6.74023 -20.2715 -10.6982 -32.1465
c-0.625 -1.89648 -1.27148 -3.77148 -1.93848 -5.625zM362.667 113.448c-1.10352 2.34375 -5.57324 3.88477 -21.334 3.88477c-1.25 0 -3.46875 -0.166992 -6.47949 -0.5c8.29297 -5.64648 15.0117 -9.60449 17.918 -10.2295
c9.89551 0.0634766 9.89551 2.05273 9.89551 6.84473z" />
    <glyph glyph-name="007-user" unicode="&#xf106;" 
d="M254.145 172.12c-31.0654 0.530273 -56.1934 11.4512 -74.6426 32.3379c-40.8203 46.0156 -34.0342 124.898 -33.292 132.427c2.65039 56.9355 29.793 83.9727 52.0586 96.5898c22.1602 12.6172 45.2734 14.5254 57.042 14.5254h0.636719h0.423828h0.742188
c21.417 -0.423828 40.6084 -5.51367 57.042 -14.9492c22.0537 -12.6172 48.7725 -39.6543 51.4229 -96.166c0.742188 -7.52832 7.52734 -86.4111 -33.292 -132.427c-18.5547 -20.8867 -43.6836 -31.8076 -74.749 -32.3379h-1.05957h-0.636719h-1.69629zM174.519 334.234
c-0.105469 -0.636719 -7.31543 -73.0527 26.2949 -110.798c13.2529 -15.0557 31.1719 -22.4775 54.4971 -22.6895h0.530273v0h0.530273c23.4316 0.211914 41.2441 7.63379 54.6035 22.6895c33.7158 37.958 26.2939 110.056 26.1885 110.798
c-0.106445 0.211914 -0.106445 0.529297 -0.106445 0.847656c-3.28613 71.8857 -51.9521 83.5488 -80.5791 84.1846h-0.848633h-0.423828c-23.1143 0 -77.0811 -8.16406 -80.5801 -84.1846c0 -0.211914 -0.106445 -0.530273 -0.106445 -0.847656zM473.725 41.2842
c0.106445 -5.51367 0.211914 -33.8223 -5.08887 -47.9238c-1.06055 -2.75684 -3.0752 -5.08984 -5.51367 -6.67969c-3.18066 -2.01465 -79.4141 -50.6807 -206.963 -50.6807c-127.55 0 -203.782 48.5596 -206.963 50.6807
c-2.54492 1.58984 -4.45312 3.92285 -5.51367 6.67969c-5.61914 14.207 -5.51367 42.5166 -5.40723 48.0293v0.318359c0.106445 0.848633 0.106445 1.69629 0.106445 2.65039c0.635742 20.8877 2.01367 69.9775 48.0293 85.7754
c0.318359 0.106445 0.636719 0.211914 1.06055 0.318359c48.0293 12.1924 87.5771 39.7598 88.002 40.0771c6.4668 4.55957 15.373 2.96875 19.9326 -3.49805c4.55859 -6.46777 2.96875 -15.374 -3.49902 -19.9336c-1.80273 -1.16602 -44.001 -30.6416 -96.8018 -44.2129
c-24.7041 -8.7998 -27.4609 -35.2002 -28.2031 -59.374c0 -0.954102 -0.105469 -1.80273 -0.105469 -2.65137c-0.212891 -9.54199 0.529297 -24.2793 2.22656 -32.7617c17.2822 -9.75391 85.0322 -43.5762 187.029 -43.5762c102.422 0 169.748 33.7158 186.924 43.4707
c1.69727 8.48145 2.33301 23.2197 2.22656 32.7617c-0.105469 0.847656 -0.105469 1.69629 -0.105469 2.65039c-0.742188 24.1738 -3.49902 50.5742 -28.2031 59.375c-52.8008 13.5713 -94.999 42.9404 -96.8018 44.2129
c-6.46777 4.55859 -8.05762 13.4648 -3.49902 19.9326c4.55957 6.46777 13.4658 8.05762 19.9326 3.49902c0.424805 -0.318359 40.1846 -27.8848 88.002 -40.0781c0.318359 -0.105469 0.742188 -0.211914 1.06055 -0.318359
c46.0156 -15.6914 47.3936 -64.7812 48.0293 -85.7744c0 -0.954102 0.106445 -1.80273 0.106445 -2.65137v-0.317383z" />
    <glyph glyph-name="012-call" unicode="&#xf10b;" 
d="M453.202 61.707c15.5254 -15.5273 15.5254 -40.7891 0 -56.3145l-47.6904 -47.6904c-0.254883 -0.255859 -0.515625 -0.5 -0.783203 -0.736328c-18.4961 -19.0566 -47.5889 -26.4492 -75.9189 -16.5645c-150.575 52.5459 -271.844 173.812 -324.39 324.39
c-10.2402 29.3389 -2.3418 60.2949 20.1123 79.1494l46.9297 47.2949c15.6904 15.6904 40.8594 15.5469 56.3613 0.046875l74.6816 -74.6826c15.5254 -15.5254 15.5254 -40.7891 0.000976562 -56.3145l-23.8477 -23.8467
c30.3496 -49.6973 72.1016 -91.4492 121.798 -121.799l21.75 21.75c15.5625 15.5625 40.7676 15.5439 56.3135 0zM429.412 29.1826c2.40723 2.40723 2.40723 6.3252 0.000976562 8.7334l-74.6816 74.6816c-2.41309 2.41211 -6.32422 2.40918 -8.7334 0l-30.9453 -30.9443
c-5.34082 -5.33887 -13.584 -6.46875 -20.1611 -2.75684c-63.5684 35.8545 -116.119 88.4072 -151.978 151.977c-3.70996 6.57812 -2.58301 14.8213 2.75781 20.1611l33.043 33.043c2.40723 2.4082 2.40723 6.3252 -0.000976562 8.73242l-74.6797 74.6826
c-1.57422 1.5752 -3.41113 1.80859 -4.36719 1.80859c-0.955078 0 -2.79395 -0.234375 -4.36719 -1.80859l-47.459 -47.8291c-0.412109 -0.415039 -0.845703 -0.80957 -1.29883 -1.17871c-11.9229 -9.74121 -15.9873 -26.4648 -10.3535 -42.6055
c49.1953 -140.979 162.73 -254.515 303.709 -303.71c15.6953 -5.47949 31.4785 -1.79785 41.2891 8.86719c0.506836 0.549805 1.04492 1.0625 1.61328 1.53516zM268.902 316.668c61.6377 0 111.784 -50.1465 111.784 -111.785
c0 -9.29102 -7.53125 -16.8232 -16.8223 -16.8232s-16.8232 7.53223 -16.8232 16.8232c0 43.0859 -35.0527 78.1396 -78.1387 78.1396c-9.29199 0 -16.8232 7.53125 -16.8232 16.8223s7.53223 16.8232 16.8232 16.8232zM268.902 382.696
c98.0459 0 177.812 -79.7676 177.812 -177.813c0 -9.29102 -7.53223 -16.8232 -16.8232 -16.8232s-16.8223 7.53223 -16.8223 16.8232c0 79.4941 -64.6729 144.167 -144.167 144.167c-9.29199 0 -16.8232 7.53223 -16.8232 16.8232s7.53223 16.8232 16.8232 16.8232z
M440.799 376.78c45.915 -45.916 71.2012 -106.963 71.2021 -171.898c0 -9.29102 -7.53223 -16.8232 -16.8232 -16.8232s-16.8223 7.53223 -16.8223 16.8232c0 115.493 -93.9609 209.453 -209.454 209.453c-9.29102 0 -16.8232 7.53223 -16.8232 16.8232
s7.53223 16.8232 16.8232 16.8232c64.9336 0 125.982 -25.2861 171.897 -71.2012z" />
    <glyph glyph-name="014-helmet" unicode="&#xf10d;" 
d="M9.14258 201.143h493.715c5.04883 0 9.14258 -4.09375 9.14258 -9.14258v-18.2861c0 -5.04883 -4.09375 -9.14258 -9.14258 -9.14258h-493.715c-5.04883 0 -9.14258 4.09375 -9.14258 9.14258v18.2861c0 5.04883 4.09375 9.14258 9.14258 9.14258zM9.14258 201.143z
M27.7949 219.429c3.38379 91.085 60.8076 171.353 145.919 203.969v-158.255c0 -5.04883 4.09375 -9.14258 9.14355 -9.14258c5.04883 0 9.14258 4.09375 9.14258 9.14258v173.715c0 5.04883 4.09375 9.14258 9.14258 9.14258h45.7148v-201.143
c0 -5.0498 4.09375 -9.14355 9.14258 -9.14355s9.14258 4.09375 9.14258 9.14355v201.143h45.7148c5.04883 0 9.14258 -4.09375 9.14258 -9.14258v-173.715c0 -5.04883 4.09375 -9.14258 9.14258 -9.14258c5.0498 0 9.14355 4.09375 9.14355 9.14258v158.255
c85.1113 -32.6162 142.535 -112.884 145.919 -203.969h-456.41zM27.7949 219.429zM484.571 18.2861h27.4287v-27.4287h-27.4287v27.4287zM484.571 18.2861zM484.571 45.7139h27.4287v-9.14258h-27.4287v9.14258zM484.571 45.7139zM0 36.5713h27.4287v-9.14258h-27.4287
v9.14258zM0 36.5713zM466.286 54.8574v-73.1436c-0.03125 -25.2363 -20.4785 -45.6826 -45.7148 -45.7139h-54.8574c-35.3965 0.116211 -68.1562 18.7275 -86.3838 49.0713c-4.93262 8.16113 -13.7764 13.1475 -23.3125 13.1475
c-9.53516 0 -18.3789 -4.98633 -23.3125 -13.1475c-18.2314 -30.3574 -51.0088 -48.9688 -86.4189 -49.0713h-54.8574c-25.2363 0.03125 -45.6836 20.4775 -45.7148 45.7139v73.1436c0 15.1475 12.2812 27.4287 27.4287 27.4287h365.715
c15.1475 0 27.4287 -12.2812 27.4287 -27.4287zM210.286 45.7139c5.04883 0 9.14258 4.09375 9.14258 9.14355c0 5.04883 -4.09375 9.14258 -9.14258 9.14258h-118.857c-15.1475 0 -27.4287 -12.2812 -27.4287 -27.4287v-36.5713
c0 -5.04883 4.09375 -9.14258 9.14258 -9.14258c5.0498 0 9.14355 4.09375 9.14355 9.14258v36.5713c0 5.04883 4.09375 9.14258 9.14258 9.14258h118.857zM265.143 45.7139c5.0498 0 9.14355 4.09375 9.14355 9.14355c0 5.04883 -4.09375 9.14258 -9.14355 9.14258
h-18.2852c-5.0498 0 -9.14355 -4.09375 -9.14355 -9.14258c0 -5.0498 4.09375 -9.14355 9.14355 -9.14355h18.2852zM265.143 45.7139zM0 9.14258h27.4287v-27.4287h-27.4287v27.4287zM0 9.14258z" />
    <glyph glyph-name="032-linkedin-1" unicode="&#xf11f;" 
d="M104.359 296.375c9.67188 0 17.543 -7.87109 17.543 -17.5469v-325.284c0 -9.67188 -7.87109 -17.543 -17.543 -17.543h-86.3125c-9.67578 0 -17.5469 7.87109 -17.5469 17.543v325.284c0 9.67578 7.87109 17.5469 17.5469 17.5469h86.3125zM91.8594 -33.9561v300.288
h-61.3164v-300.288h61.3164zM91.8594 -33.9561zM61.2031 448c33.7461 0 61.1992 -27.4531 61.1992 -61.1992c0 -33.75 -27.457 -61.2031 -61.1992 -61.2031c-33.75 0 -61.2031 27.4531 -61.2031 61.2031c0 33.7461 27.4531 61.1992 61.2031 61.1992zM61.2031 355.641
c17.1797 0 31.1562 13.9805 31.1562 31.1602s-13.9766 31.1562 -31.1562 31.1562c-17.1836 0 -31.1602 -13.9766 -31.1602 -31.1562c0 -17.1836 13.9766 -31.1602 31.1602 -31.1602zM61.2031 355.641zM401.046 258.238c35 -29.2148 55.0742 -72.0967 55.0742 -117.644
v-189.887c0 -8.12109 -6.58594 -14.707 -14.707 -14.707h-86.1289c-8.12109 0 -14.707 6.58594 -14.707 14.707v195.844c0 17.2148 -14.2578 31.1562 -31.5859 30.6445c-16.6719 -0.496094 -29.7266 -14.6133 -29.7266 -31.2969v-194.879
c0 -8.29297 -6.72656 -15.0195 -15.0234 -15.0195h-89.6162c-9.25391 0 -16.7578 7.5 -16.7578 16.7578v326.854c0 9.25391 7.50391 16.7578 16.7578 16.7578h87.8818c9.25391 0 16.7578 -7.50391 16.7578 -16.7578v-7.10156c14.832 7.3125 31.1992 11.3516 47.9492 11.6602
c26.9688 0.5 53.1992 -8.71094 73.832 -25.9336zM426.077 -33.9561v174.551c0 36.6172 -16.1367 71.0889 -44.2812 94.5811c-15.0859 12.5938 -34.2656 19.3359 -54.0273 18.9609c-19.7422 -0.367188 -38.7656 -7.78125 -53.5664 -20.8828
c-6.21094 -5.5 -15.707 -4.92188 -21.2021 1.28906c-2.53125 2.86328 -3.76172 6.41797 -3.75781 9.95703h-0.0195312v21.832h-61.3125v-300.288h61.3125v180.508c0 33.4688 27.2295 60.6982 60.6982 60.6982c33.4727 0 60.7031 -27.2295 60.7031 -60.6982v-180.508h55.4531
zM426.077 -33.9561z" />
    <glyph glyph-name="047-twitter-logo-shape" unicode="&#xf12d;" horiz-adv-x="511" 
d="M427.636 296.41c0.211914 -4.48828 0.317383 -8.99219 0.317383 -13.5557c0 -138.836 -105.664 -298.903 -298.903 -298.903c-59.3604 0 -114.55 17.3633 -161.05 47.1953c8.25098 -0.952148 16.6074 -1.43555 25.0557 -1.43555
c49.2656 0 94.5117 16.7285 130.448 44.9434c-45.9258 0.875977 -84.7344 31.2061 -98.0938 72.9609c6.4082 -1.23926 12.9668 -1.88867 19.7676 -1.88867c9.5957 0 18.8594 1.26953 27.6553 3.6875c-48.0117 9.65625 -84.2656 52.1064 -84.2656 102.989v1.31445
c14.1904 -7.87305 30.375 -12.5879 47.6035 -13.1318c-28.1699 18.8145 -46.7119 51.0029 -46.7119 87.4541c0 19.2529 5.18359 37.2812 14.2051 52.8164c51.7891 -63.5615 129.239 -105.377 216.512 -109.76c-1.76758 7.69238 -2.71973 15.6865 -2.71973 23.9385
c0 58 47.0293 105.014 105.075 105.014c30.1934 0 57.501 -12.7539 76.6182 -33.126c23.9072 4.7002 46.4248 13.4502 66.7354 25.4795c-7.87305 -24.542 -24.4971 -45.125 -46.1982 -58.0908c21.248 2.50879 41.498 8.16016 60.3135 16.502
c-14.0547 -21.0811 -31.8564 -39.5781 -52.3643 -54.4033z" />
    <glyph glyph-name="003-mail" unicode="&#xf102;" 
d="M511.609 250.399l0.390625 -283.787c0.00976562 -7.24121 -5.85352 -13.1201 -13.0938 -13.1299l-485.385 -0.666992h-0.0185547c-3.47168 0 -6.80176 1.37598 -9.25977 3.82617c-2.46094 2.45605 -3.84668 5.78906 -3.85254 9.2666l-0.390625 284.234
c0 0.0800781 0.0166016 0.15332 0.0214844 0.230469c0.0615234 4.09277 2.02148 8.0957 5.64453 10.5996l73.6484 50.9014v53.9727c0 7.24023 5.86914 13.1123 13.1113 13.1123h83.9502l72.2061 49.9043c4.49805 3.10742 10.4512 3.09473 14.9346 -0.0263672
l71.7432 -49.8779h84.3193c7.24023 0 13.1123 -5.87207 13.1123 -13.1123v-54.6152l73.292 -50.9482c2.61719 -1.82031 4.36621 -4.42676 5.15332 -7.28125c0.298828 -0.669922 0.47168 -1.83301 0.472656 -2.60254zM432.69 279.292v-58.2461l41.8975 29.1279z
M256.015 402.116l-33.502 -23.1562h66.8125zM105.538 352.735v-150.501l101.13 -69.8936l41.4932 32.1855c4.77832 3.70703 11.29 3.58008 15.8936 0.125977c0.0625 -0.0449219 0.117188 -0.0761719 0.181641 -0.125977l41.1934 -31.9541l101.036 70.2422v149.921h-300.928z
M79.3145 279.997l-43.1465 -29.8213l43.1465 -29.8184v59.6396zM26.2578 225.133l0.320312 -232.479l158.349 122.823zM51.875 -20.9092l407.915 0.561523l-203.591 157.923zM327.144 115.729l158.597 -123.022l-0.320312 233.059zM344.77 300.287
c7.24219 0 13.1123 -5.87207 13.1123 -13.1123s-5.87012 -13.1113 -13.1123 -13.1113h-177.535c-7.24023 0 -13.1123 5.87109 -13.1123 13.1113s5.87207 13.1123 13.1123 13.1123h177.535zM344.77 232.105c7.24219 0 13.1123 -5.87207 13.1123 -13.1123
s-5.87012 -13.1123 -13.1123 -13.1123h-177.535c-7.24023 0 -13.1123 5.87207 -13.1123 13.1123s5.87207 13.1123 13.1123 13.1123h177.535z" />
    <glyph glyph-name="027-instagram" unicode="&#xf11a;" 
d="M75 -64c-41.3555 0 -75 33.6445 -75 75v362c0 41.3555 33.6445 75 75 75h362c41.3555 0 75 -33.6445 75 -75v-362c0 -41.3555 -33.6445 -75 -75 -75h-362zM30 373v-362c0 -24.8125 20.1875 -45 45 -45h362c24.8125 0 45 20.1875 45 45v362c0 24.8125 -20.1875 45 -45 45
h-362c-24.8125 0 -45 -20.1875 -45 -45zM30 373zM256 57c-74.4375 0 -135 60.5625 -135 135s60.5625 135 135 135s135 -60.5625 135 -135s-60.5625 -135 -135 -135zM256 297c-57.8984 0 -105 -47.1016 -105 -105s47.1016 -105 105 -105s105 47.1016 105 105
s-47.1016 105 -105 105zM256 297zM406 297c-24.8125 0 -45 20.1875 -45 45s20.1875 45 45 45s45 -20.1875 45 -45s-20.1875 -45 -45 -45zM406 357c-8.26953 0 -15 -6.73047 -15 -15s6.73047 -15 15 -15s15 6.73047 15 15s-6.73047 15 -15 15zM406 357z" />
    <glyph glyph-name="054-quote-1" unicode="&#xf134;" 
d="M0 155.429v219.428h219.429v-219.428l-73.1436 -146.285h-109.714l73.1426 146.285h-109.714zM292.571 374.856h219.429v-219.428l-73.1436 -146.285h-109.714l73.1436 146.285h-109.715v219.428z" />
    <glyph glyph-name="001-allah-word" unicode="&#xf100;" 
d="M507.521 311.244c5.81934 -84.5312 15.5557 -226.008 -42.4414 -289.932l-7.29297 -8.03906l-0.0869141 10.8555c-0.110352 14.3438 -0.106445 28.9678 -0.0996094 43.1094c0.0166016 59.4219 0.0341797 120.867 -8.38574 180.328l-0.380859 2.69629
c-9.47559 66.6758 -9.12988 67.6738 36.4141 106.983c2.97461 2.56348 6.14746 5.30371 9.53125 8.24609l6.01855 5.23438l6.00781 -49.0352zM389.595 222.855c0.520508 -3.69336 0.679688 -12.9688 0.836914 -39.4141
c0.117188 -19.0762 0.110352 -45.7891 -0.260742 -63.5459c0 -48.8896 -46.7529 -86.8789 -86.9727 -86.8789c-23.2852 0 -40.4805 12.042 -48.751 33.5537c-11.7861 -28.7891 -32.6875 -33.4961 -45.0811 -33.4961c-31.6904 0 -70.0986 29.3604 -84.5479 62.3652
c-10.5537 -25.1113 -30.1064 -39.25 -55.0088 -39.25c-29.7578 0 -59.4512 20.6621 -67.6055 47.0361c-4.28125 13.8574 -5.99414 40.8467 30.6748 65.9111c5.99805 4.09668 12.1348 7.83887 18.0527 11.4727c52.1719 32.0225 51.6953 60.374 54.5762 77.1006
c2.87793 16.7275 20.0537 19.6631 20.0537 19.6631l2.74512 -3.97168c15.2842 -22.0879 17.6387 -50.2051 19.9141 -77.3975c2.53613 -30.2812 4.93066 -58.8818 23.541 -79.8535c4.91895 -5.54199 14.7559 -8.98242 25.6777 -8.98242
c12.8037 0 26.1602 4.9043 27.124 15.8613c3.82812 43.4297 6.72266 100.184 -5.00098 154.023c-9.23926 42.4326 -4.12012 49.3848 19.0625 72c4.66992 4.55273 9.96191 9.71582 16.0596 16.1543l4.03125 4.25586l2.7793 -5.15625
c13.3359 -24.7295 12.1338 -74.8535 10.8584 -127.92c-1.41016 -58.8242 -3.01465 -125.497 21.2451 -129.663c2.78809 -0.478516 5.49121 -0.722656 8.03125 -0.722656h0.00683594c10.5352 0.00195312 18.8877 4.01367 25.5381 12.2686
c28.4482 35.3145 14.3936 135.802 9.38965 158.783c-9.24023 42.4326 -4.12109 49.3848 19.0625 72c4.66992 4.55273 9.96191 9.71582 16.0596 16.1543l4.03027 4.25586l2.7793 -5.15625c13.4229 -24.8906 12.4297 -74.3672 11.3799 -126.748
c-0.0996094 -4.91211 -0.195312 -9.82129 -0.28125 -14.7031zM97.7266 117.685c8.47168 5.64648 13.8438 35.7852 11.1133 49.873c-23.166 -6.09277 -43.9277 -17.2725 -61.8184 -33.2881c16.4473 -17.3008 30.7959 -19.9834 38.1025 -19.9834
c4.91309 0 9.27051 1.17578 12.6025 3.39844z" />
  </font>
</defs>
</svg>
